<?xml version="1.0" standalone="no"?>
<!DOCTYPE svg PUBLIC "-//W3C//DTD SVG 1.1//EN" "http://www.w3.org/Graphics/SVG/1.1/DTD/svg11.dtd" >
<svg xmlns="http://www.w3.org/2000/svg" xmlns:xlink="http://www.w3.org/1999/xlink" version="1.1">
<metadata>
Created by FontForge 20200427 at Mon Nov 12 23:41:30 2012
 By www
Copyright (c) 2012, Soytutype (contact@soytutype.com.ar|soytutype@gmail.com), with reserved fontname 'Oleo'
</metadata>
<defs>
<font id="OleoScript-Regular" horiz-adv-x="576" >
  <font-face 
    font-family="Oleo Script"
    font-weight="400"
    font-stretch="normal"
    units-per-em="1000"
    panose-1="2 0 0 0 0 0 0 0 0 0"
    ascent="800"
    descent="-200"
    x-height="438"
    cap-height="710"
    bbox="-156 -279 958 938"
    underline-thickness="50"
    underline-position="-100"
    unicode-range="U+0020-20AC"
  />
<missing-glyph horiz-adv-x="500" 
 />
    <glyph glyph-name=".notdef" horiz-adv-x="500" 
 />
    <glyph glyph-name=".null" horiz-adv-x="0" 
 />
    <glyph glyph-name="nonmarkingreturn" horiz-adv-x="333" 
 />
    <glyph glyph-name="space" unicode=" " horiz-adv-x="200" 
 />
    <glyph glyph-name="exclam" unicode="!" horiz-adv-x="298" 
d="M288 664q0 -99 -65 -311q-5 -17 -18.5 -61.5t-20.5 -68.5q-27 -9 -47.5 -9t-36.5 2q36 217 36 383l-6 84q85 27 152 27q6 -9 6 -46zM31 60q0 33 27.5 58t63.5 25t56 -20t20 -52.5t-28.5 -57.5t-63.5 -25t-55 19.5t-20 52.5z" />
    <glyph glyph-name="quotedbl" unicode="&#x22;" horiz-adv-x="376" 
d="M138 732q78 0 78 -57.5t-83 -243.5l-44 7l19 292q20 2 30 2zM298 732q78 0 78 -57.5t-83 -243.5l-44 7l19 292q20 2 30 2z" />
    <glyph glyph-name="numbersign" unicode="#" horiz-adv-x="593" 
d="M320 -12h-9q1 32 25 178q-32 2 -49 2h-52q-17 -91 -23 -162q-36 -18 -97 -18h-10q1 42 29 177q-77 -4 -101 -10q-10 32 -13 91q47 5 109 5h23q15 69 23 115q-84 -4 -110 -10q-13 32 -19 91q50 5 112 5h32q13 78 13 105.5t-2 35.5q62 24 105 24q4 -13 4 -39t-19 -128
l90 -4q12 87 12 113t-2 34q63 24 105 24q4 -13 4 -42t-17 -134h7q55 0 97 6q2 -13 2 -37q0 -55 -40 -55q-28 0 -80 4q-3 -19 -10 -58.5t-10 -60.5h12q55 0 97 6q2 -20 2 -37q0 -55 -40 -55q-30 0 -84 4q-15 -100 -18 -152q-37 -18 -98 -18zM316 369h-41q-3 -12 -11.5 -54
t-13.5 -66l100 -4l20 122q-36 2 -54 2z" />
    <glyph glyph-name="dollar" unicode="$" horiz-adv-x="477" 
d="M436 196q0 -86 -59.5 -140t-148.5 -65q-10 -75 -10 -109q-27 0 -64 13l17 94q-64 4 -105 37.5t-46 57.5q11 33 47 74t65 50q51 -33 95 -147q29 1 47 18.5t18 54t-30.5 92t-66.5 104t-66.5 109t-30.5 107.5q0 76 62 120t149 44h6q7 54 9 92q27 0 64 -13l-16 -88
q41 -13 64.5 -41.5t23.5 -64t-32 -79.5t-64 -70l-32 -26q12 -16 29 -41t46 -85t29 -98zM384 555.5q11 18.5 11 39t-24 34.5t-57.5 14t-56 -15.5t-22.5 -37t14.5 -50t28.5 -47.5l15 -19q10 5 31.5 21t35 29t24.5 31.5z" />
    <glyph glyph-name="percent" unicode="%" horiz-adv-x="813" 
d="M326.5 696q29.5 -39 29.5 -98.5t-19 -114t-65.5 -94.5t-108 -40t-92 38.5t-30.5 101.5q0 109 54.5 177.5t140.5 68.5q61 0 90.5 -39zM175 395q36 0 57 99q12 56 12 125.5t-26 69.5q-33 0 -54 -99q-11 -57 -11 -126t22 -69zM776.5 333q29.5 -39 29.5 -98.5t-19 -114
t-65.5 -94.5t-108 -40t-92 38.5t-30.5 101.5q0 109 54.5 177.5t140.5 68.5q61 0 90.5 -39zM625 32q36 0 57 99q12 56 12 125.5t-26 69.5q-33 0 -54 -100q-11 -56 -11 -125t22 -69zM643 701q-47 -107 -114.5 -232.5t-122.5 -239t-97 -240.5q-17 1 -43 11q-28 10 -48 27
q47 133 160 354t164 353q75 -15 101 -33z" />
    <glyph glyph-name="ampersand" unicode="&#x26;" horiz-adv-x="727" 
d="M655 82q12 0 42 18l10 6l25 -37q-81 -78 -156 -78t-129 74q-89 -76 -200 -76q-87 0 -138.5 44.5t-51.5 122.5q0 143 187 243q-43 83 -43 142q0 80 58 124.5t137 44.5t116.5 -33.5t37.5 -78.5q0 -84 -148 -186q46 -88 104 -175q23 31 50.5 80.5t32.5 57.5q55 -8 70 -34
q-11 -14 -48.5 -71t-61.5 -87q79 -101 106 -101zM199 180q0 -55 25 -83.5t61 -28.5t63 13t40 26l13 13q-91 144 -128 221q-74 -59 -74 -161zM456 558q7 16 7 35.5t-16.5 34.5t-46.5 15t-53.5 -16.5t-23.5 -54t43 -103.5q14 10 26 18t25 20t22.5 23.5t16.5 27.5z" />
    <glyph glyph-name="quotesingle" unicode="'" horiz-adv-x="216" 
d="M138 732q78 0 78 -57.5t-83 -243.5l-44 7l19 292q20 2 30 2z" />
    <glyph glyph-name="parenleft" unicode="(" horiz-adv-x="345" 
d="M197 81q0 -104 11 -157t42 -108l-45 -44q-17 14 -41.5 50t-41 76t-30 110.5t-13.5 170.5t27.5 202.5t65.5 164.5t79 107t66 63t29 18l37 -50q-186 -158 -186 -603z" />
    <glyph glyph-name="parenright" unicode=")" horiz-adv-x="373" 
d="M192 422q0 109 -11.5 160t-41.5 108l45 44q17 -14 41.5 -50t41 -76t30 -110.5t13.5 -170.5t-27.5 -202.5t-65.5 -164.5t-79 -107t-66 -63t-29 -18l-37 50q186 158 186 600z" />
    <glyph glyph-name="asterisk" unicode="*" horiz-adv-x="383" 
d="M266 529q31 -25 52.5 -25t45.5 8q12 -7 21 -26.5t9 -33t-1 -17.5q-26 -29 -63 -29q-8 0 -19 5t-39.5 37t-45.5 64q-17 -31 -17 -46q0 -24 13 -51l5 -9q-9 -15 -30.5 -29t-40.5 -14q-17 10 -29 29t-12 38.5t27 52t59 58.5q-15 3 -31 3t-24 -2t-20.5 -10t-19.5 -16l-7 -7
q-17 3 -38 19t-23 35q4 21 22.5 40.5t35 19.5t52 -14t65.5 -33q-2 38 -7 48q-9 17 -36 34l-9 5q0 24 10.5 45.5t25.5 27.5q22 0 44.5 -12t28.5 -28q2 -8 2 -19q0 -58 -18 -109q32 16 40 26q14 17 18 48l2 10q18 6 43.5 6t37.5 -12q8 -16 8 -41t-13 -38t-50.5 -24t-73.5 -14z
" />
    <glyph glyph-name="plus" unicode="+" horiz-adv-x="503" 
d="M295 238v-143q-20 -9 -83 -9h-9v152h-139q0 59 4 88h135v139q32 8 91 8v-147h148q0 -80 -3 -88h-144z" />
    <glyph glyph-name="comma" unicode="," horiz-adv-x="235" 
d="M24 16q0 72 56 135q52 0 86 -30.5t34 -71.5q0 -102 -122 -241l-42 27q62 94 67 133z" />
    <glyph glyph-name="hyphen" unicode="-" horiz-adv-x="369" 
d="M54 238q0 62 3 85h275q0 -69 -3 -85h-275z" />
    <glyph glyph-name="period" unicode="." horiz-adv-x="248" 
d="M62 9q-19 21 -19 56t26 60.5t61.5 25.5t54.5 -20.5t19 -55t-26.5 -61t-61.5 -26.5t-54 21z" />
    <glyph glyph-name="slash" unicode="/" horiz-adv-x="361" 
d="M381 715q-165 -419 -309 -825q-39 0 -77 38q173 480 304 820q45 -7 82 -33z" />
    <glyph glyph-name="zero" unicode="0" horiz-adv-x="570" 
d="M565 452q0 -168 -75 -308q-37 -70 -100.5 -113t-143.5 -43q-97 0 -146 71.5t-49 189.5q0 204 89 332.5t229 128.5q100 0 148 -72.5t48 -185.5zM255 55q45 0 78.5 58.5t48.5 142.5q29 164 29 246.5t-13.5 111t-48 28.5t-64 -47t-46.5 -121q-34 -146 -34 -296
q0 -72 13 -97.5t37 -25.5z" />
    <glyph glyph-name="one" unicode="1" horiz-adv-x="373" 
d="M100 -3h-10q2 73 57 312.5t55 286.5q0 23 -1 28q-55 -30 -120 -95q-12 6 -24.5 21.5t-18.5 27.5l-6 12l167 107q74 13 152 13q12 -20 12 -63.5t-25 -152t-52 -242t-30 -235.5q-36 -20 -156 -20z" />
    <glyph glyph-name="two" unicode="2" horiz-adv-x="495" 
d="M372 -18q-35 0 -105 40.5t-116 53.5q-34 -36 -65.5 -58.5t-42.5 -22.5t-39.5 35.5t-28.5 54t33.5 53t77.5 34.5q27 0 53 -6q70 56 133 162.5t63 186.5q0 45 -27 70.5t-65.5 25.5t-75 -25t-62.5 -69l-46 20q20 63 90.5 118t157 55t135 -47t48.5 -118q0 -51 -29.5 -111.5
t-75.5 -115.5q-86 -101 -172 -170q125 -34 193 -34q19 0 28 10.5t28 48.5l33 -7q-10 -184 -123 -184z" />
    <glyph glyph-name="three" unicode="3" horiz-adv-x="477" 
d="M150 662.5q61 47.5 141.5 47.5t130 -43.5t49.5 -105.5t-46 -109.5t-115 -65.5q68 -12 111.5 -58t43.5 -119q0 -92 -77 -156.5t-180 -64.5q-112 0 -178 66q-35 34 -35 81q0 15 8 36.5t20 33.5q10 2 22 2q71 0 109 -38l-14 -106q14 -11 47 -11q50 0 86.5 52.5t36.5 124.5
t-32 98.5t-106 26.5l-23 -1l6 51q49 5 73.5 16.5t45.5 27.5q47 34 47 101q0 42 -22.5 62.5t-53.5 20.5q-82 0 -132 -97l-44 19q20 61 81 108.5z" />
    <glyph glyph-name="four" unicode="4" horiz-adv-x="548" 
d="M510 158q-21 -14 -50 -14t-52 4q-10 -75 -10 -132q-39 -20 -157 -20h-10q0 44 28 181q-63 10 -112.5 10t-88.5 -13l-39 -14h-1q-10 0 -25.5 22t-16.5 41q0 7 18 25q157 223 318 445q64 14 178 17q13 -20 13 -56.5t-11.5 -94.5t-32.5 -148t-32 -148q38 -2 59.5 -2t31.5 15
l16 27l36 -12q-15 -104 -60 -133zM281 280q64 281 65 340q-92 -106 -226 -328q67 -1 161 -12z" />
    <glyph glyph-name="five" unicode="5" horiz-adv-x="481" 
d="M219 695l215 9q38 0 64 -13q6 -14 6 -39q0 -46 -18 -91l-5 -14q-47 33 -115 33q-121 0 -172 -6q-12 -46 -23 -112q120 -4 202 -50q44 -24 69 -69t25 -107q0 -100 -76 -174t-181 -74q-76 0 -139 40.5t-63 104.5q0 47 24 74q6 1 17 1q71 0 111 -42l-7 -106q16 -11 41 -11
q54 0 86.5 57t32.5 144.5t-46 124t-139 36.5h-17l-20 27q10 34 28 131t30 130q29 -4 70 -4z" />
    <glyph glyph-name="six" unicode="6" horiz-adv-x="547" 
d="M367 648q-58 0 -96.5 -73.5t-55.5 -193.5q61 39 138 39t118.5 -50.5t41.5 -141t-72 -165.5t-179 -75q-211 0 -211 264q0 123 40.5 228t114.5 167.5t165 62.5q68 0 121 -34.5t53 -99.5q0 -46 -24 -71q-8 -1 -22 -1q-73 0 -109 39l15 94q-16 11 -38 11zM293 350
q-36 0 -85 -34q-4 -49 -4 -124.5t14 -108.5t47 -33q47 0 70 57t23 127q0 116 -65 116z" />
    <glyph glyph-name="seven" unicode="7" horiz-adv-x="418" 
d="M171 583q-50 0 -112 -41q-22 51 -22 110q0 22 6 40q60 15 105 15t116.5 -6.5t113 -6.5t90.5 8l15 -35q-108 -161 -169.5 -331.5t-75.5 -319.5q-9 -7 -53.5 -13.5t-79.5 -6.5h-21q10 84 38 168q47 145 208 410q-77 9 -159 9z" />
    <glyph glyph-name="eight" unicode="8" horiz-adv-x="500" 
d="M380 46q-73 -57 -158.5 -57t-133.5 42t-48 109q0 113 160 221q-78 121 -78 191.5t64.5 114t147 43.5t124.5 -36t42 -88q0 -87 -130 -202q7 -12 26 -40t29 -46q28 -48 28 -103q0 -92 -73 -149zM127 145q0 -41 26 -65t67.5 -24t72.5 20.5t31 54.5q0 39 -43 107
q-15 23 -44 67q-110 -75 -110 -160zM416 585q0 58 -67 58q-36 0 -61.5 -15.5t-25.5 -43t26.5 -74.5t44.5 -70q30 24 56.5 68.5t26.5 76.5z" />
    <glyph glyph-name="nine" unicode="9" horiz-adv-x="528" 
d="M68 134q56 -67 120 -67q132 0 167 236q-53 -28 -118 -28q-84 0 -131.5 51.5t-47.5 133.5q0 106 74 178t179.5 72t158.5 -65.5t53 -196t-34 -231t-105 -165t-166 -64.5q-74 0 -122 34.5t-71 76.5zM285 345q41 0 77 22q5 57 5 127.5t-12.5 111.5t-54 41t-64 -55.5
t-22.5 -129.5q0 -117 71 -117z" />
    <glyph glyph-name="colon" unicode=":" horiz-adv-x="318" 
d="M84 9q-19 21 -19 56t26 60.5t61.5 25.5t54.5 -20.5t19 -55t-26.5 -61t-61.5 -26.5t-54 21zM121 300q-19 21 -19 56t26 60.5t61.5 25.5t54.5 -20.5t19 -55t-26.5 -61t-61.5 -26.5t-54 21z" />
    <glyph glyph-name="semicolon" unicode=";" horiz-adv-x="320" 
d="M121 300q-19 21 -19 56t26 60.5t61.5 25.5t54.5 -20.5t19 -55t-26.5 -61t-61.5 -26.5t-54 21zM57 16q0 72 56 135q52 0 86 -30.5t34 -71.5q0 -102 -122 -241l-42 27q62 94 67 133z" />
    <glyph glyph-name="less" unicode="&#x3c;" horiz-adv-x="421" 
d="M154 283l237 -89q0 -63 -9 -89l-342 139v75l342 156q9 -25 9 -89z" />
    <glyph glyph-name="equal" unicode="=" horiz-adv-x="532" 
d="M85 159q0 62 10 90h370q0 -67 -6 -90h-374zM85 315q0 59 11 90h369q0 -51 -6 -90h-374z" />
    <glyph glyph-name="greater" unicode="&#x3e;" horiz-adv-x="405" 
d="M55 194l237 89l-237 103q0 51 13 87l338 -154v-75l-342 -139q-9 26 -9 89z" />
    <glyph glyph-name="question" unicode="?" horiz-adv-x="422" 
d="M415 542q0 -38 -23 -78.5t-50 -69.5q-74 -76 -74 -109q0 -10 16.5 -19.5t35.5 -10.5q-9 -36 -18 -49q-72 0 -118.5 30.5t-46.5 86.5q0 34 41 91.5t82 113.5t41 91t-35 41q-26 -68 -84 -120q-24 7 -62 40t-38 47q0 26 49 54.5t114 28.5t117.5 -41t52.5 -127zM110 60
q0 33 27.5 58t63.5 25t56 -20t20 -52.5t-28.5 -57.5t-63.5 -25t-55 19.5t-20 52.5z" />
    <glyph glyph-name="at" unicode="@" horiz-adv-x="774" 
d="M362 -12q-154 0 -234 90.5t-80 226.5q0 80 28.5 153t79.5 129t128 89.5t167 33.5q144 0 226 -77t82 -200q0 -68 -26 -124.5t-64 -89t-74 -50t-61 -17.5q-43 0 -57 54q-65 -54 -116.5 -54t-83 35t-31.5 134t52 167.5t134 68.5q31 0 55.5 -7t50 -15t44.5 -13
q-36 -141 -36 -269q0 -18 2.5 -25t11.5 -7q34 0 73.5 62.5t39.5 150.5t-52 150.5t-169 62.5q-139 0 -222.5 -97.5t-83.5 -219t57 -198t170 -76.5q57 0 102 22q14 -22 20 -54l2 -10q-67 -26 -135 -26zM390 225q32 0 66 36q10 145 28 222q-26 13 -48 13q-42 0 -67 -50
t-25 -135.5t46 -85.5z" />
    <glyph glyph-name="A" unicode="A" 
d="M60 13q-7 -22 -31.5 -22t-55.5 27q30 88 127 283.5t126 292.5q4 16 4 22q0 15 -22 46l-8 11l2 13q85 24 188 24l61 -4q11 -15 17 -46q16 -76 16 -391q0 -122 21 -172q8 -19 16 -19t49 20l13 6l20 -36q-38 -37 -84.5 -58.5t-85.5 -21.5q-101 0 -101 157v79q-26 6 -79 6
t-116 -10q-50 -116 -77 -207zM334 292l1 116q0 152 -13 206q-8 0 -12 -2q-28 -77 -52.5 -130.5t-53 -114t-35.5 -75.5h165z" />
    <glyph glyph-name="B" unicode="B" horiz-adv-x="591" 
d="M330 -12q-54 0 -137 20q-52 -14 -97 -14t-52 3q7 60 59.5 295.5t52.5 295.5q0 12 -13 32t-26 34l-13 14l3 15q131 27 282 27q83 0 136.5 -39.5t53.5 -110.5q0 -137 -167 -190q67 -8 112.5 -50.5t45.5 -119.5q0 -94 -68 -153t-172 -59zM312 343q-28 0 -50 -5
q-43 -190 -55 -265q25 -17 78.5 -17t91.5 42.5t38 122.5q0 122 -103 122zM368 648q-38 0 -45 -7q-14 -90 -46 -236q40 0 56 5t28.5 13t28.5 25q35 37 35 118.5t-57 81.5z" />
    <glyph glyph-name="C" unicode="C" horiz-adv-x="542" 
d="M266 -12q-93 0 -154 75.5t-61 197.5t42 222.5t120 163.5t166.5 63t143 -40t54.5 -95.5t-33 -94.5q-32 0 -72 14t-60 34l19 101q-24 15 -63 15q-61 0 -108 -104.5t-47 -257.5q0 -101 33.5 -146.5t81.5 -45.5q79 0 152 74l41 -37q-11 -16 -40 -44t-57 -46.5t-71 -33.5
t-87 -15z" />
    <glyph glyph-name="D" unicode="D" horiz-adv-x="641" 
d="M307 -12q-58 0 -120 19q-52 -13 -90.5 -13t-52.5 2q7 59 60.5 299.5t53.5 273t-13.5 56.5t-26.5 35l-14 11l3 15q26 7 106.5 15.5t140.5 8.5q139 0 210.5 -61.5t71.5 -199.5q0 -113 -37.5 -216.5t-114.5 -174t-177 -70.5zM378 647q-26 0 -59 -6q-10 -106 -56.5 -309.5
t-54.5 -259.5q24 -12 66 -12t79.5 33.5t60.5 83.5t40 112q29 111 29 202t-24 123.5t-81 32.5z" />
    <glyph glyph-name="E" unicode="E" horiz-adv-x="515" 
d="M249 -12q-70 0 -134 40q-32 20 -52.5 56t-20.5 83q0 89 59 145t142 65q-56 15 -89.5 52t-33.5 94q0 86 67.5 136.5t154.5 50.5t145 -37t58 -100q0 -22 -7.5 -43t-15.5 -30l-7 -10q-32 0 -70.5 11t-56.5 28l12 103q-15 15 -50.5 15t-56 -36.5t-20.5 -83.5t11 -71t31 -37
q31 -20 73 -28l-8 -55q-72 0 -125 -42.5t-53 -112.5q0 -44 28.5 -72.5t73.5 -28.5q82 0 168 83l40 -37q-116 -138 -263 -138z" />
    <glyph glyph-name="F" unicode="F" horiz-adv-x="481" 
d="M235 705l196 -6l103 2q3 -15 3 -40t-7.5 -36t-25.5 -11t-76.5 5t-86.5 5l-36 -2q-4 -38 -48 -243q76 7 127 7t79 -8q-2 -42 -18 -72q-43 9 -102 9t-100 -6q-37 -181 -37 -275v-17q-36 -20 -152 -20h-10q0 68 46.5 283t56.5 309q0 16 -10 38.5t-21 36.5l-10 14l3 15
q54 11 126 12z" />
    <glyph glyph-name="G" unicode="G" horiz-adv-x="567" 
d="M222 -224q-50 0 -83 24.5t-33 67.5q0 115 235 151q9 33 14 64q-46 -28 -97 -28q-93 0 -150 67.5t-57 175.5t42 200t120.5 152t167 60t145 -43.5t56.5 -110.5q0 -40 -14 -65q-8 -1 -22 -1q-77 0 -116 25l1 108q-24 21 -63 21q-61 0 -108 -93.5t-47 -227.5q0 -89 29 -131
t69 -42q60 0 108 60t69 143l54 -9q-38 -286 -115 -427t-205 -141zM171 -129q0 -28 47 -28q24 0 57 29.5t50 76.5q-58 -5 -106 -26.5t-48 -51.5z" />
    <glyph glyph-name="H" unicode="H" horiz-adv-x="681" 
d="M436 13.5q-25 25.5 -25 69t44 246.5q-26 6 -84 6t-111 -10q-51 -230 -54 -308q-36 -20 -152 -20h-10q3 44 53.5 263t62.5 329q0 16 -10 38.5t-20 36.5l-11 14l3 15q59 17 187 17q12 -20 12 -65t-45 -248h193q35 178 36 254q0 17 -2 28q80 31 161 31q3 -6 3 -30
q0 -55 -48.5 -283t-48.5 -290q0 -27 9 -27t61 26l18 -37q-89 -81 -158 -81q-39 0 -64 25.5z" />
    <glyph glyph-name="I" unicode="I" horiz-adv-x="325" 
d="M209 102q0 -22 11 -22q6 0 58 26l19 -37q-90 -81 -159 -81q-43 0 -65.5 29t-22.5 72t48.5 235.5t53.5 264.5q0 16 -10.5 38.5t-21.5 36.5l-10 14l3 15q57 17 188 17q12 -23 12 -66.5t-52 -251.5t-52 -290z" />
    <glyph glyph-name="J" unicode="J" horiz-adv-x="415" 
d="M173 709l203 -7l106 4q2 -11 2 -33.5t-7.5 -32t-24.5 -9.5t-73 2q-40 -335 -79 -487q-18 -74 -49 -112q-16 -19 -43 -32.5t-68 -13.5t-84.5 27.5t-70.5 68.5l28 31q12 -11 37 -24t43 -13q30 0 52.5 60.5t46 212.5t23.5 247v41q-79 0 -117 -9q-13 26 -18 68q25 11 93 11z
" />
    <glyph glyph-name="K" unicode="K" horiz-adv-x="635" 
d="M63 -4h-19q4 45 53 264.5t61 328.5q0 16 -10.5 38.5t-21.5 36.5l-10 14l3 15q56 17 193 17q13 -24 13 -68.5t-50 -250.5h5q89 0 127.5 67.5t57.5 227.5q71 24 149 24q2 -7 1.5 -34t-10.5 -69.5t-29.5 -89.5t-57 -88.5t-86.5 -66.5q58 -198 100 -258q18 -25 28 -25
q18 0 56 18l12 6l23 -37q-37 -34 -85.5 -56t-91.5 -22t-67.5 34t-41 84.5t-34.5 119.5t-24 104q-9 -1 -47 -1q-59 -250 -59 -313q-39 -20 -138 -20z" />
    <glyph glyph-name="L" unicode="L" horiz-adv-x="501" 
d="M442.5 -1q-25.5 -18 -60 -18t-103 42t-109.5 54q-27 -36 -61 -60t-47 -24q-10 0 -40 43.5t-30 62.5q0 11 31.5 33t66.5 30q25 61 52 180.5t42 246.5q0 16 -10.5 38.5t-21.5 36.5l-10 14l3 15q60 17 197 17q13 -22 13 -67t-26 -134t-71.5 -213.5t-52.5 -147.5q4 -1 25 -7
t27.5 -7.5t25.5 -6t30 -6t29 -3.5q31 -5 58.5 -5t39.5 14l28 52l33 -8q0 -65 -21 -123q-12 -31 -37.5 -49z" />
    <glyph glyph-name="M" unicode="M" horiz-adv-x="970" 
d="M730 14.5q-23 26.5 -23 72t41.5 226.5t41.5 231t-39 50q-54 0 -119 -48q-7 -54 -41 -188.5t-45.5 -199t-11.5 -99.5t1 -43q-39 -20 -139 -20h-19q0 84 47 286q48 206 48 259t-37 53q-54 0 -126 -52q-11 -55 -41 -179q-67 -284 -67 -347q-39 -20 -138 -20h-19
q4 45 53 264.5t61 328.5q0 16 -10.5 38.5t-21.5 36.5l-10 14l3 15q56 17 193 17q13 -24 13 -61q0 -8 -4 -42q115 103 206 103q41 0 69 -28t36 -73q119 101 202 101q52 0 84 -34t32 -95t-42.5 -232.5t-42.5 -239.5q0 -29 10 -29q9 0 49 20l14 6l20 -37q-43 -37 -86.5 -59
t-81 -22t-60.5 26.5zM228 390q-1 -2 -1 -5z" />
    <glyph glyph-name="N" unicode="N" horiz-adv-x="661" 
d="M63 -4h-19q4 45 53 264.5t61 328.5q0 16 -10.5 38.5t-21.5 36.5l-10 14l3 15q56 17 193 17q13 -24 13 -47t-4 -57q125 104 204 104q52 0 84 -34t32 -95t-42.5 -232.5t-42.5 -239.5q0 -29 10 -29q9 0 50 20l13 6l20 -37q-42 -36 -87 -58.5t-81.5 -22.5t-59.5 26.5t-23 72
t41.5 226.5t41.5 231t-39 50q-59 0 -134 -59q-11 -53 -41 -177q-66 -273 -66 -342q-39 -20 -138 -20z" />
    <glyph glyph-name="O" unicode="O" horiz-adv-x="636" 
d="M618 537.5q13 -44.5 13 -98.5t-12 -115t-40 -122t-68 -108t-101 -76.5t-134 -29.5q-107 0 -166 76.5t-59 197t42.5 221t122 164t176.5 63.5q64 0 112 -24t74.5 -64t39.5 -84.5zM385.5 97q32.5 41 49.5 107q34 130 34 267q0 171 -92 171q-52 0 -91 -62q-73 -117 -73 -324
q0 -113 13 -140q6 -15 16 -31q18 -29 64.5 -29t79 41z" />
    <glyph glyph-name="P" unicode="P" horiz-adv-x="546" 
d="M290 277q-27 0 -41 1q-43 -188 -48 -261q-43 -21 -131 -21q-19 0 -26 1q7 59 60 296.5t53 299.5q0 12 -13.5 31.5t-27.5 32.5l-13 13l3 15q168 25 272 25q206 0 206 -168q0 -112 -74 -188.5t-220 -76.5zM274 344q77 0 116.5 58t39.5 155q0 40 -15 65.5t-44 25.5
q-19 0 -47 -7q-16 -105 -60 -297h10z" />
    <glyph glyph-name="Q" unicode="Q" horiz-adv-x="636" 
d="M516 -224q-32 0 -126.5 54.5t-131.5 54.5q-62 -68 -90 -68q-10 0 -36.5 32t-26.5 49t35 42.5t81.5 25.5t153.5 -30.5t167 -30.5q18 0 25.5 7.5t15 19.5t14 22.5t7.5 10.5l32 -10q0 -179 -120 -179zM618 537.5q13 -44.5 13 -98.5t-12 -115t-40 -122t-68 -108t-101 -76.5
t-134 -29.5q-107 0 -166 76.5t-59 197t42.5 221t122 164t176.5 63.5q64 0 112 -24t74.5 -64t39.5 -84.5zM385.5 97q32.5 41 49.5 107q34 130 34 267q0 171 -92 171q-53 0 -91 -62q-73 -118 -73 -324q0 -113 13 -140q6 -15 16 -31q18 -29 64.5 -29t79 41z" />
    <glyph glyph-name="R" unicode="R" horiz-adv-x="633" 
d="M70 -5q-19 0 -26 1q7 58 61.5 294.5t54.5 299.5q0 12 -14 31.5t-28 32.5l-13 14l3 16q137 26 290 26q184 0 184 -145q0 -71 -35.5 -129.5t-110.5 -91.5q56 -187 96 -242q18 -23 28 -23q18 0 56 18l12 6l23 -37q-37 -34 -85.5 -56t-91 -22t-70 36.5t-50 107.5t-45.5 182
q-32 -2 -49 -2q-51 -219 -56 -296q-43 -21 -134 -21zM299 380q60 0 94.5 53.5t34.5 127.5q0 39 -14 63t-42 24q-12 0 -28.5 -3.5t-16.5 -4.5q-16 -103 -52 -260h24z" />
    <glyph glyph-name="S" unicode="S" horiz-adv-x="463" 
d="M432 196q0 -96 -73 -152t-177 -56q-70 0 -115.5 35.5t-50.5 60.5q11 33 47 74t65 50q51 -33 95 -147q65 2 65 71q0 38 -30.5 93.5t-66.5 104t-66.5 109t-30.5 107.5q0 76 61.5 120t138.5 44t119.5 -33t42.5 -75t-32 -86t-64 -70l-32 -26q12 -16 29 -41t46 -85t29 -98z
M380 555.5q11 18.5 11 39t-24 34.5t-57.5 14t-56 -15.5t-22.5 -37t14.5 -50t28.5 -47.5l15 -19q10 5 31.5 21t35 29t24.5 31.5z" />
    <glyph glyph-name="T" unicode="T" horiz-adv-x="499" 
d="M136 710l334 -11l94 2q3 -21 3 -44t-8 -33t-29 -10q-2 0 -141 13q-4 -45 -30 -154t-50 -233t-25 -223q-39 -20 -160 -20h-7q0 52 57 310t57 314q0 4 -2 14h-40q-82 0 -126 -25q-23 30 -28 88q34 12 101 12z" />
    <glyph glyph-name="U" unicode="U" horiz-adv-x="668" 
d="M313 633q0 -52 -42.5 -240t-42.5 -238.5t37 -50.5q64 0 144 55q6 36 29 145q54 252 56 347q0 17 -2 28q80 31 161 31q3 -6 3 -30q0 -55 -48.5 -283t-48.5 -290q0 -27 9 -27t61 26l18 -37q-89 -81 -158 -81q-38 0 -63 24t-26 68q-135 -92 -224 -92q-49 0 -78.5 31.5
t-29.5 86.5t41 230.5t41 252.5q0 16 -10 38.5t-20 36.5l-10 14l2 15q55 17 186 17q15 -25 15 -77z" />
    <glyph glyph-name="V" unicode="V" 
d="M133.5 25.5q-30.5 37.5 -30.5 92.5t14 194t14 198t-13 92l-41 76l4 15q81 17 201 17q10 -38 10 -117t-19.5 -229.5t-19.5 -200t31 -49.5t79.5 53t92.5 139.5t54 166.5l-106 62q8 76 37 121q26 40 43 51l7 5q61 0 92.5 -32t31.5 -76q0 -109 -65 -255t-162 -253.5
t-179 -107.5q-45 0 -75.5 37.5z" />
    <glyph glyph-name="W" unicode="W" horiz-adv-x="891" 
d="M117 123l7 317q0 126 -15 162l-49 76l3 15q71 16 204 16q19 -29 19 -107.5t-10 -211t-10 -204.5t34 -72q20 0 58 32.5t65 70.5q22 226 22 305t-22 147q53 27 174 41q11 -36 11 -101.5t-20.5 -227.5t-20.5 -214.5t30.5 -52.5t82.5 58t95.5 144.5t48.5 156.5l-106 62
q7 60 28.5 103.5t39.5 57.5l18 14q61 0 93.5 -31.5t32.5 -74.5q0 -81 -40.5 -189t-100 -202t-135.5 -159.5t-140 -65.5q-38 0 -67.5 36t-30.5 92q-44 -60 -93 -94t-94 -34t-78.5 37.5t-33.5 97.5z" />
    <glyph glyph-name="X" unicode="X" horiz-adv-x="564" 
d="M532 710q25 0 62 -40q-39 -71 -138 -182q-33 -37 -98 -108q23 -65 58 -156q52 -137 83 -137q10 0 52 23l14 7l21 -44q-31 -31 -84.5 -58t-92 -27t-61.5 20.5t-45 77.5t-58 166q-112 -131 -188 -249q-10 -17 -31 -17t-53 42q46 79 146 192q35 39 100 110
q-73 216 -103.5 260t-61.5 75l4 15q-2 1 25 8q76 18 155 22q25 -22 41 -77q43 -145 53 -177q128 146 177 237q9 17 23 17z" />
    <glyph glyph-name="Y" unicode="Y" horiz-adv-x="641" 
d="M282.5 -216.5q-33.5 -7.5 -72.5 -7.5t-66.5 23t-27.5 61t25.5 69t61.5 49q73 38 133 50l26 5q1 4 12 40t16 56q-127 -76 -209 -76q-49 0 -81 31.5t-32 90t38 211t38 203.5q0 33 -30 75l-10 14l3 15q60 17 185 17q14 -30 14 -81t-38 -215.5t-38 -190.5q0 -53 36 -53
q68 0 145 39q61 251 83 474q51 26 140 26h19q0 -53 -18 -147q-23 -119 -71 -360q-21 -108 -55 -188.5t-70 -124.5t-79.5 -71t-77 -34.5zM210 -157q35 0 73 38.5t62 91.5q-47 -5 -105.5 -36.5t-58.5 -64.5q0 -12 8.5 -20.5t20.5 -8.5z" />
    <glyph glyph-name="Z" unicode="Z" horiz-adv-x="530" 
d="M420 -13q-41 0 -129 40t-150 40q-18 0 -54 -37t-45 -37t-27 11t-27 22q40 81 181 251t213 279q-98 13 -154 13q-84 0 -120 -20l-12 -7q-2 0 -8 16q-18 48 -18 84t6 50q41 18 92 18t138.5 -11.5t138.5 -11.5t91 9l19 -45q-64 -102 -178 -242t-166 -220q42 -3 120 -27.5
t108 -24.5t42 10t31 45l32 -10q-5 -71 -19 -116q-24 -79 -105 -79z" />
    <glyph glyph-name="bracketleft" unicode="[" horiz-adv-x="343" 
d="M178 -147q0 -9 60 -31l20 -8l-6 -37q-7 -1 -14 -1q-69 0 -156 14q-14 22 -16 40q57 587 95 864q1 8 11 24t21 16q68 0 170 -17l-2 -37q-91 -13 -94 -28q-5 -23 -24 -161t-25.5 -200.5t-15 -135.5t-12.5 -115q-12 -124 -12 -187z" />
    <glyph glyph-name="backslash" unicode="\" horiz-adv-x="366" 
d="M12 715q37 26 82 33q131 -340 304 -820q-38 -38 -77 -38q-144 406 -309 825z" />
    <glyph glyph-name="bracketright" unicode="]" horiz-adv-x="375" 
d="M203 657q0 9 -60 31l-20 8l6 37q7 1 14 1q69 0 156 -14q14 -22 16 -40q-57 -587 -95 -864q-1 -8 -11 -24t-21 -16q-68 0 -170 17l2 37q91 13 94 28q5 23 24 161t25.5 200.5t15 135.5t12.5 115q12 124 12 187z" />
    <glyph glyph-name="asciicircum" unicode="^" horiz-adv-x="458" 
d="M21 287l172 387h75q23 -53 54 -126q66 -155 115 -261q-26 -3 -42 -3t-56 4q-71 179 -109 268q-39 -90 -112 -268q-40 -4 -56 -4t-41 3z" />
    <glyph glyph-name="underscore" unicode="_" horiz-adv-x="560" 
d="M52 0q0 42 3 65h454q0 -49 -3 -65h-454z" />
    <glyph glyph-name="grave" unicode="`" horiz-adv-x="621" 
d="M228 693q27 0 88 -42q16 -11 28.5 -19.5t31.5 -22.5t31 -23q30 -25 64 -49l-22 -38q-123 47 -292 101q38 93 71 93z" />
    <glyph glyph-name="a" unicode="a" horiz-adv-x="480" 
d="M328 414q2 2 11 26q47 0 126 -28q-25 -83 -40 -173.5t-15 -129t8 -38.5q6 0 44 19l12 6l18 -35q-9 -8 -23.5 -20t-54.5 -32.5t-72 -20.5q-62 0 -72 56q-64 -56 -115.5 -56t-87 40t-35.5 126q0 134 55 211.5t133 77.5q56 0 108 -29zM214 73q24 0 54 19q7 141 47 279
q-30 13 -51 13q-36 0 -61.5 -70.5t-25.5 -155.5t37 -85z" />
    <glyph glyph-name="b" unicode="b" horiz-adv-x="480" 
d="M289 698q0 -76 -51 -298q60 43 108.5 43t83 -40.5t34.5 -123.5q0 -139 -54.5 -215t-132.5 -76q-29 0 -58.5 7t-44.5 15l-15 7q-64 -22 -125 -22q-6 5 -6 48.5t56 288t56 334.5q0 16 -5 41q78 27 149 27q5 -14 5 -36zM280 358q-19 0 -57 -18q-46 -194 -50 -278
q30 -13 57 -13q38 0 63.5 70t25.5 154.5t-39 84.5z" />
    <glyph glyph-name="c" unicode="c" horiz-adv-x="397" 
d="M260 393q-40 0 -64 -66.5t-24 -142.5q0 -120 74 -120q24 0 51 11.5t43 22.5l15 12l23 -31q-8 -11 -32 -29t-45 -30t-54 -22t-65 -10q-78 0 -117 51t-39 137q0 119 65.5 193t168.5 74q67 0 106.5 -30.5t39.5 -75t-28 -76.5q-25 0 -58 11t-50 27l15 88q-9 6 -25 6z" />
    <glyph glyph-name="d" unicode="d" horiz-adv-x="502" 
d="M504 61q-85 -73 -149.5 -73t-74.5 64q-30 -30 -67 -47t-65 -17q-48 0 -82 42t-34 130q0 132 56 207.5t126.5 75.5t118.5 -32q31 162 31 255l-5 42q75 26 147 26q8 -17 8 -39q0 -73 -44 -296.5t-44 -303.5q0 -24 11 -24q6 0 38 19l10 6zM263 384q-35 0 -60.5 -69
t-25.5 -136.5t9.5 -86.5t28.5 -19q33 0 65 27q3 40 45 266q-34 18 -62 18z" />
    <glyph glyph-name="e" unicode="e" horiz-adv-x="399" 
d="M26 173q0 125 75.5 197.5t171.5 72.5q59 0 97 -29t38 -77.5t-24.5 -81.5t-59.5 -51q-71 -35 -130 -44l-24 -3q7 -94 77 -94q24 0 51 12t42 24l15 12l24 -32q-8 -11 -32 -29t-45 -30q-58 -32 -127 -32t-109 49t-40 136zM250 249q30 34 30 88t-32 54q-38 0 -58.5 -64.5
t-20.5 -120.5q51 9 81 43z" />
    <glyph glyph-name="f" unicode="f" horiz-adv-x="293" 
d="M322 431q-2 -22 -18 -58q-38 4 -75 4h-4q-21 -247 -39 -365t-47 -165q-36 1 -74.5 9.5t-52.5 17.5q24 74 48.5 223t31.5 275q-28 -2 -62 -7q-3 13 -3 26.5t4 39.5h64q2 87 9 132q12 80 55.5 125.5t112.5 45.5q44 0 69.5 -19.5t25.5 -61.5t-38 -108.5t-100 -113.5h93z
M292 567q22 40 22 72.5t-21 32.5q-44 0 -56 -101q-4 -34 -6 -77q39 33 61 73z" />
    <glyph glyph-name="g" unicode="g" horiz-adv-x="463" 
d="M123 -147q0 -19 21.5 -19t48.5 20.5t45 66.5q-48 -9 -81.5 -29t-33.5 -39zM453 436q4 -4 4 -17.5t-2 -29t-7 -69.5t-10 -94q-51 -450 -274 -450q-36 0 -65.5 19t-29.5 49q0 40 49 73t132 51q0 1 6 28t8 44q-60 -44 -112.5 -44t-86 41t-33.5 131q0 118 53 196.5t140 78.5
q49 0 97 -24q51 18 110 18zM270 384q-43 0 -68 -69.5t-25 -154t38 -84.5q25 0 59 19q28 168 40 277q-28 12 -44 12z" />
    <glyph glyph-name="h" unicode="h" horiz-adv-x="496" 
d="M147 660q0 33 -6 47q78 27 147 27q9 -9 9 -46q0 -66 -56 -304q81 59 142 59q38 0 57.5 -24t19.5 -63.5t-23 -129t-23 -122.5t8 -33t42 18l12 6l18 -35q-9 -8 -24 -20t-55 -32t-73.5 -20t-53.5 21.5t-20 58t22.5 133t22.5 122t-21 25.5q-26 0 -65 -22q-55 -242 -55 -314
q-42 -16 -143 -16q-1 17 -1 30q0 43 59.5 294t59.5 340z" />
    <glyph glyph-name="i" unicode="i" horiz-adv-x="272" 
d="M210 236.5q-27 -102.5 -27 -134t9 -31.5q6 0 46 19l12 6l17 -35q-9 -8 -24 -20t-56 -32.5t-76 -20.5t-55 21.5t-20 58t25 130t25 121.5q0 42 -26 79l-9 12l1 13q53 15 172 15q13 -15 13 -57t-27 -144.5zM103 600q0 33 27.5 58t63.5 25t56 -20t20 -52.5t-28.5 -57.5
t-63.5 -25t-55 19.5t-20 52.5z" />
    <glyph glyph-name="j" unicode="j" horiz-adv-x="256" 
d="M89 333q0 23 -29 63l-9 14l1 13q57 15 172 15q13 -15 13 -55.5t-24.5 -188.5t-41 -213t-34.5 -102.5t-56.5 -70t-82 -32.5t-80.5 19t-56 37l-18 19l22 32q49 -29 73 -29q38 0 68 53t56 210.5t26 215.5zM105 600q0 33 27.5 58t63.5 25t56 -20t20 -52.5t-28.5 -57.5
t-63.5 -25t-55 19.5t-20 52.5z" />
    <glyph glyph-name="k" unicode="k" horiz-adv-x="508" 
d="M143 660q0 33 -6 47q78 27 147 27q9 -9 9 -46q0 -83 -55 -318q89 73 176 73q39 0 66 -24t27 -70q0 -86 -141 -125q33 -104 58 -141q11 -16 16 -16q11 0 46 17l11 5l16 -34q-24 -22 -66.5 -44.5t-77.5 -22.5q-78 0 -109 142q-14 61 -17 114q64 15 95.5 36.5t31.5 55
t-34 33.5t-114 -68q-50 -211 -50 -289q-55 -16 -143 -16q-1 17 -1 30q0 43 57.5 294t57.5 340z" />
    <glyph glyph-name="l" unicode="l" horiz-adv-x="266" 
d="M50.5 11q-22.5 23 -22.5 64.5t49.5 265t49.5 322.5l-6 44q78 27 146 27q10 -14 10 -49q0 -80 -50.5 -309.5t-50.5 -267t9 -37.5l70 25l18 -35q-34 -27 -82.5 -50t-83 -23t-57 23z" />
    <glyph glyph-name="m" unicode="m" horiz-adv-x="734" 
d="M57 -3h-19q0 47 28.5 180t28.5 151q0 33 -28 70l-9 12l1 13q54 15 173 15q14 -19 14 -62q90 67 143 67q67 0 79 -69q27 22 70.5 45.5t78 23.5t57.5 -22.5t23 -62.5t-22 -132t-22 -123.5t9 -31.5q6 0 41 19l11 6l18 -35q-26 -26 -70.5 -49.5t-78.5 -23.5q-75 0 -75 85
q0 31 21.5 124.5t21.5 122t-17 28.5q-29 0 -66 -22q-2 -20 -27.5 -136t-25.5 -180q-29 -13 -136 -13q-2 11 -2 53t23.5 143t23.5 128t-19 27q-30 0 -66 -24q-2 -9 -20 -88q-36 -158 -36 -225q-35 -14 -126 -14z" />
    <glyph glyph-name="n" unicode="n" horiz-adv-x="508" 
d="M57 -3h-19q0 47 28.5 180t28.5 151q0 33 -28 70l-9 12l1 13q54 15 173 15q13 -17 14 -62q87 67 147 67q36 0 57.5 -25t21.5 -62.5t-23 -129.5t-23 -123.5t8 -31.5q6 0 42 19l12 6l18 -35q-9 -8 -24 -20t-55.5 -32.5t-72.5 -20.5q-73 0 -73 83q0 35 22.5 129t22.5 121
t-17 27q-29 0 -71 -25q-3 -17 -20 -90q-35 -157 -35 -222q-35 -14 -126 -14z" />
    <glyph glyph-name="o" unicode="o" horiz-adv-x="409" 
d="M170 -12q-69 0 -108 48.5t-39 135.5q0 111 59.5 191t164.5 80l36 -2q17 9 38 9q79 0 79 -149q41 2 83 11l16 4l6 -39q-33 -14 -89 -25l-20 -4q-19 -105 -77 -182.5t-149 -77.5zM224 74q42 0 75.5 54t46.5 114q-107 0 -107 80q0 32 13 60l5 10q-4 2 -10 2t-9 -2
q-25 -16 -47 -75t-22 -135q0 -108 55 -108z" />
    <glyph glyph-name="p" unicode="p" horiz-adv-x="477" 
d="M1 -224q-5 12 -5 53t39 220.5t39 276.5q0 19 -9 40.5t-19 33.5l-9 11l1 13q47 15 166 15q11 -21 14 -59q77 63 128.5 63t83 -43t31.5 -126q0 -145 -53 -215.5t-134 -70.5q-42 0 -70 12l-10 4l7 39q9 -2 21 -2q26 0 45.5 24t29.5 61q20 74 20 137q0 90 -37 90
q-29 0 -62 -23q-4 -70 -41 -245t-37 -282q-54 -22 -139 -27z" />
    <glyph glyph-name="q" unicode="q" horiz-adv-x="469" 
d="M238 -224q-6 12 -6 50t35 213q-63 -51 -116 -51t-86 42t-33 125q0 139 56 213.5t134 74.5q42 0 101 -23q50 18 128 18q3 -18 3 -41q0 -109 -38.5 -305t-38.5 -289q-54 -22 -139 -27zM266 384q-38 0 -63.5 -66.5t-25.5 -155.5t38 -89q34 0 64 26q34 172 34 274
q-28 11 -47 11z" />
    <glyph glyph-name="r" unicode="r" horiz-adv-x="364" 
d="M50 -3h-7q-2 8 -2 36.5t27 153.5t27 143q0 31 -28 68l-9 12l1 13q54 15 173 15q12 -26 12 -73q11 18 46 48t72 30q54 0 54 -94q-5 -6 -13.5 -15.5t-34 -26.5t-49.5 -21q-1 0 -17 27t-24 27q-25 -9 -44 -30q-46 -207 -46 -268q0 -22 1 -31q-35 -14 -139 -14z" />
    <glyph glyph-name="s" unicode="s" horiz-adv-x="355" 
d="M339 131q0 -63 -55.5 -103t-126.5 -40t-112.5 30t-41.5 53q0 14 35 45.5t59 38.5q50 -37 82 -117q37 3 37 35q0 46 -81 130.5t-81 134.5t45 77.5t108.5 27.5t95.5 -22.5t32 -61t-61 -106.5q7 -7 18 -18.5t29 -43.5t18 -60zM285 359q0 35 -48 35q-23 0 -38 -9.5t-15 -21.5
q0 -22 44 -62l15 -13q42 36 42 71z" />
    <glyph glyph-name="t" unicode="t" horiz-adv-x="295" 
d="M343 431q-2 -25 -17 -58q-38 4 -72 4h-18q-46 -223 -46 -278q0 -29 12.5 -29t66.5 25l18 -33q-89 -74 -165 -74q-35 0 -57.5 22t-22.5 58.5t8.5 82.5t23.5 112.5t22 107.5q-37 -3 -55 -6q-2 12 -2 32.5t3 33.5h63q8 54 8 102l-1 31v3q78 27 147 27q4 -20 4 -50t-17 -113
h97z" />
    <glyph glyph-name="u" unicode="u" horiz-adv-x="499" 
d="M64 221.5q26 103.5 26 127t-36 62.5l1 13q68 14 179 14q5 -13 5 -47t-28 -145t-28 -138t20 -27q29 0 67 21q4 24 20 92q36 160 36 229q35 14 126 14h19q0 -47 -28 -183.5t-28 -160t10 -23.5q6 0 57 24l19 -32q-89 -74 -156 -74q-32 0 -54.5 18t-25.5 47q-81 -66 -147 -66
q-35 0 -57.5 23t-22.5 65.5t26 146z" />
    <glyph glyph-name="v" unicode="v" horiz-adv-x="394" 
d="M192.5 425q21.5 -18 21.5 -74q0 -30 -18 -122.5t-18 -112.5q0 -40 16 -40q38 0 83.5 56.5t47.5 94.5l-68 76q4 43 21 78t32 49l14 13q43 0 65 -23t22 -54q0 -79 -39 -167t-104 -149.5t-132 -61.5q-42 0 -64.5 26t-22.5 68.5t6.5 114.5t6.5 143q0 16 -11.5 38t-23.5 35
l3 12q54 18 97.5 18t65 -18z" />
    <glyph glyph-name="w" unicode="w" horiz-adv-x="624" 
d="M52 82l11 261q0 34 -36 70l2 12q7 2 13.5 3.5t15 3.5t19.5 4t23 4q28 3 52.5 3t42 -20t17.5 -63.5t-13.5 -124t-13.5 -120t19 -39.5q31 0 68 39q1 16 13 102t12 125t-6 67q77 29 138 29q13 -9 13 -58.5t-17 -137t-17 -127t16 -39.5q38 0 83 56.5t48 94.5l-68 76
q4 43 21 78t32 49l14 13q43 0 65 -23t22 -54q0 -79 -39 -167t-105 -149.5t-134 -61.5q-34 0 -57.5 19.5t-31.5 50.5q-70 -70 -136 -70q-44 0 -65 27.5t-21 66.5z" />
    <glyph glyph-name="x" unicode="x" horiz-adv-x="391" 
d="M342 68q6 0 40 18l10 5l18 -35q-8 -8 -21 -19t-50.5 -30t-71 -19t-54 17.5t-33.5 57.5l-23 71q-75 -81 -112 -145q-7 0 -34.5 10t-40.5 17q29 51 167 181q-35 105 -56 147q-4 8 -48 57l3 12l61 13q53 8 94 10q21 -17 33.5 -63t19.5 -70q74 81 97 136q28 -4 55 -21l9 -5
q-35 -66 -142 -173q11 -38 20 -63q38 -109 59 -109z" />
    <glyph glyph-name="y" unicode="y" horiz-adv-x="457" 
d="M133 -147q0 -19 21.5 -19t48.5 20.5t45 66.5q-48 -9 -81.5 -29t-33.5 -39zM118 -4q-84 0 -84 92q0 22 20 127t20 175q0 15 -4 28q54 21 148 21q5 -14 5 -48t-22 -141t-22 -138t26 -31q31 0 75 31q5 59 40 311q35 14 126 14h19q-19 -75 -37 -216t-29 -196
q-21 -110 -77.5 -179.5t-147.5 -69.5q-36 0 -65.5 19t-29.5 49q0 40 49 73t132 51q9 44 14 85q-81 -57 -156 -57z" />
    <glyph glyph-name="z" unicode="z" horiz-adv-x="389" 
d="M131 443l191 -8q32 0 61 3l9 -32l-19 -22q-54 -65 -120 -155.5t-72 -98.5q92 -33 139 -33q15 0 21 6q9 9 23 39l30 -7q-7 -113 -46 -144q-19 -15 -47 -15t-89.5 34.5t-99.5 44.5q-42 -57 -58 -57t-40 26.5t-24 41.5t31.5 51.5t65.5 36.5q7 0 11 -1q81 79 146 179
q-86 -1 -120 -5.5t-66 -22.5q-8 35 -8 72.5t3 53.5q13 13 78 13z" />
    <glyph glyph-name="braceleft" unicode="{" horiz-adv-x="430" 
d="M228 390l-3 222q0 45 28.5 84t79.5 39t113 -26l-5 -41q-65 0 -78 -14t-22 -74.5t-17 -152t-11 -111.5q-6 -43 -53 -63q36 -22 36 -58.5t-21 -157.5t-21 -146t3 -32q5 -14 25 -23t38 -12l18 -2l-6 -41q-29 -5 -67 -5q-132 0 -132 112q0 36 36.5 160t44.5 167
q-5 6 -38.5 11.5t-63.5 7.5l-31 2l10 73q88 -12 122 -12l11 1q4 37 4 92z" />
    <glyph glyph-name="bar" unicode="|" horiz-adv-x="266" 
d="M199 794v-938q-23 -3 -87 -3v938q35 3 87 3z" />
    <glyph glyph-name="braceright" unicode="}" horiz-adv-x="433" 
d="M249 121l3 -222q0 -45 -28.5 -84t-79.5 -39t-113 26l5 41q65 0 78 14t22 74.5t17 152t11 111.5q6 43 53 63q-36 22 -36 58.5t21 157.5t21 145.5t-4 35.5t-24 20t-38 11l-18 3l6 41q29 5 67 5q132 0 132 -112q0 -36 -36.5 -160t-44.5 -167q5 -6 38.5 -11.5t64.5 -7.5
l30 -2l-10 -73q-88 12 -122 12l-11 -1q-4 -37 -4 -92z" />
    <glyph glyph-name="asciitilde" unicode="~" horiz-adv-x="535" 
d="M376 235q-26 0 -101 13t-108.5 13t-42.5 -1q-27 -5 -46 -34l-31 7q8 55 40.5 91.5t79 36.5t123.5 -12t107.5 -12t46.5 6t30 26l31 -6q-10 -58 -38 -93t-91 -35z" />
    <glyph glyph-name="nbspace" unicode="&#xa0;" horiz-adv-x="200" 
 />
    <glyph glyph-name="exclamdown" unicode="&#xa1;" horiz-adv-x="275" 
d="M16 -233q0 99 65 311q5 17 18.5 61.5t20.5 68.5q27 11 50 11t34 -4q-36 -217 -36 -383l6 -84q-85 -27 -151 -27q-7 9 -7 46zM273 371q0 -33 -27.5 -58t-63.5 -25t-56 20t-20 52.5t28.5 57.5t63.5 25t55 -19.5t20 -52.5z" />
    <glyph glyph-name="cent" unicode="&#xa2;" horiz-adv-x="388" 
d="M252 393q-34 0 -61 -61t-27 -118q0 -120 74 -120q24 0 51 11.5t43 22.5l15 12l23 -31q-8 -8 -21.5 -21t-56.5 -37.5t-87 -30.5q-11 -74 -11 -114q-46 0 -66 10l19 104q-65 9 -97 58.5t-32 135.5t59 151.5t146 75.5q12 100 12 120q40 0 66 -10l-21 -110q55 -6 86.5 -35.5
t31.5 -71t-28 -73.5q-25 0 -58 11t-50 27l15 88q-9 6 -25 6z" />
    <glyph glyph-name="sterling" unicode="&#xa3;" horiz-adv-x="523" 
d="M432 431q-2 -25 -17 -58q-38 4 -112 4h-27q-30 -129 -76 -227q4 -1 29.5 -8t34 -9t31 -7t37.5 -7q43 -6 69 -6t38 12l30 56l32 -10q0 -65 -21 -123q-12 -31 -37.5 -49t-60 -18t-103 42t-109.5 54q-27 -36 -61 -60t-47 -24q-10 0 -40 43.5t-30 62.5q0 11 31.5 33t66.5 30
q22 61 43 208q-25 -1 -43 -5q-2 12 -2 29t3 37h50l9 72q18 142 79 189q31 24 65 32.5t90 8.5t110 -32t54 -80q0 -22 -10 -47.5t-23 -38.5q-25 0 -64 16.5t-58 35.5l18 86q-11 9 -29.5 9t-30 -9t-19 -23.5t-13.5 -40.5t-9 -40t-9 -51.5t-7 -43.5l-7 -43h145z" />
    <glyph glyph-name="currency" unicode="&#xa4;" horiz-adv-x="654" 
d="M151 217q-35 54 -35 130t33 131q-70 58 -102 101q46 59 70 59q11 0 22 -12t33.5 -40.5t38.5 -44.5q57 34 134 34t134 -34q40 52 61 83q10 14 23 13.5t20 -3.5q17 -7 53 -52q-31 -43 -95 -102q35 -56 35 -131t-35 -131q67 -61 95 -101q-46 -57 -70 -57q-14 0 -23 11.5
t-30.5 40.5t-33.5 45q-54 -34 -133.5 -34t-135.5 35q-1 -1 -59 -85q-9 -12 -21 -12q-27 0 -73 56q35 47 94 100zM238.5 453q-36.5 -40 -36.5 -103.5t36.5 -104t107 -40.5t107.5 40.5t37 103.5t-37 103.5t-107.5 40.5t-107 -40z" />
    <glyph glyph-name="yen" unicode="&#xa5;" horiz-adv-x="489" 
d="M433 204q-2 -25 -17 -58l-118 4q-11 -68 -11 -130q-32 -20 -145 -20h-4q0 44 21 147q-64 -3 -107 -9q-2 12 -2 29t3 37h117l10 47q-86 -4 -116 -9q-2 12 -2 29t3 37h127q-10 10 -17 29q-16 39 -32 141t-25.5 129.5t-17.5 32.5l-39 42l3 13q88 15 180 15
q15 -26 19.5 -65.5t9.5 -96.5q10 -111 22 -150q6 0 7 1q35 53 77 142.5t64 166.5q57 0 89 -15q-9 -14 -81.5 -158t-116.5 -214l-3 -13h114q-2 -25 -17 -58l-110 4l-10 -50h125z" />
    <glyph glyph-name="brokenbar" unicode="&#xa6;" horiz-adv-x="276" 
d="M112 -147v436h87v-433q-23 -3 -87 -3zM199 403h-87v388q2 0 87 3v-391z" />
    <glyph glyph-name="section" unicode="&#xa7;" horiz-adv-x="479" 
d="M464 274q0 -103 -145 -157q59 -79 59 -142t-59.5 -105t-130.5 -42q-43 0 -87 17t-68 36t-25 29q8 25 39.5 53t58.5 36q40 -28 68 -113q27 0 48 13t21 42t-20 62t-49 65t-58 66q-69 81 -69 154q0 106 145 152q-59 79 -59 143t59.5 107.5t129.5 43.5t109 -30.5t39 -72.5
q0 -72 -55 -117q-17 6 -30.5 16.5t-23.5 25.5q43 34 43 69q0 22 -19 35t-50 13t-50 -16.5t-20 -46.5q5 -47 75 -125q28 -32 56 -65q68 -80 68 -146zM331 241q0 17 -9 33t-13.5 23.5t-16.5 22.5t-17.5 21.5t-21 24t-20.5 23.5q-54 -28 -54 -72q0 -18 9 -34t14 -24t17 -23
t17.5 -21.5t21.5 -24.5t21 -24q52 34 52 75z" />
    <glyph glyph-name="dieresis" unicode="&#xa8;" horiz-adv-x="509" 
d="M106 557q-16 18 -16 48t22.5 51.5t51.5 21.5q63 0 63 -65q0 -29 -23 -51.5t-52.5 -22.5t-45.5 18zM301.5 556.5q-15.5 17.5 -15.5 48t22.5 52t52.5 21.5t46 -17.5t16 -47t-23 -52t-53 -22.5t-45.5 17.5z" />
    <glyph glyph-name="copyright" unicode="&#xa9;" horiz-adv-x="793" 
d="M544 543q42 -30 42 -66.5t-15 -62.5q-26 0 -59 8.5t-49 20.5l7 70q-17 10 -33 10q-43 0 -69.5 -50.5t-26.5 -144.5q0 -58 25 -93t60 -35q52 0 104 45l24 -32q-33 -50 -103 -72q-28 -9 -59 -9q-77 0 -128.5 51t-51.5 147.5t67.5 169.5t167.5 73q55 0 97 -30zM132 89.5
q-97 101.5 -97 257.5t99 259.5t276.5 103.5t274 -101t96.5 -259.5t-97 -260t-276 -101.5t-276 101.5zM185 560q-80 -85 -80 -212.5t78 -211t225 -83.5t225 83.5t78 213.5t-78 212.5t-223 82.5t-225 -85z" />
    <glyph glyph-name="ordfeminine" unicode="&#xaa;" horiz-adv-x="385" 
d="M200 321q-29 -15 -58.5 -15t-54.5 29.5t-25 96.5q0 96 49.5 162t130.5 66q31 0 131 -28q-19 -48 -34.5 -125.5t-15.5 -106.5t11 -29l36 8l11 -28q-55 -46 -95 -46q-36 0 -41 51q-16 -20 -45 -35zM180 376q29 0 61 34q24 136 42 190q-13 7 -41 7t-50 -29q-44 -58 -44 -145
q0 -57 32 -57z" />
    <glyph glyph-name="guillemotleft" unicode="&#xab;" horiz-adv-x="494" 
d="M234 492l43 -34q-91 -114 -112 -157q17 -52 80 -155l-42 -35q-35 24 -95.5 90t-60.5 95q3 36 187 196zM430 492l43 -34q-91 -114 -112 -157q17 -52 80 -155l-42 -35q-35 24 -95.5 90t-60.5 95q3 36 187 196z" />
    <glyph glyph-name="logicalnot" unicode="&#xac;" horiz-adv-x="503" 
d="M449 388v-219q-26 -13 -91 -13v146h-309q0 64 6 86h394z" />
    <glyph glyph-name="uni00AD" unicode="&#xad;" horiz-adv-x="518" 
d="M76 159q0 62 10 90h370q0 -67 -6 -90h-374z" />
    <glyph glyph-name="registered" unicode="&#xae;" horiz-adv-x="796" 
d="M132 89.5q-97 101.5 -97 260t96.5 259.5t276.5 101t276.5 -101t96.5 -259.5t-97 -260t-276 -101.5t-276 101.5zM183 562.5q-78 -82.5 -78 -212.5t78 -213.5t225 -83.5t225 83.5t78 213.5t-78 212.5t-225 82.5t-225 -82.5zM232 149q-11 0 -15 1q4 36 34.5 169t30.5 168
q0 13 -24 38l-7 8l4 16q95 20 196 20q58 0 92 -22t34 -67q0 -93 -94 -126q3 -11 44 -96q21 -45 40 -45l34 8l13 -27q-56 -45 -108.5 -45t-72.5 50.5t-42 135.5q-8 -1 -25 -1q-30 -139 -32 -172q-26 -13 -102 -13zM394 383q35 0 53 27.5t18 73t-32 45.5l-27 -4
q-14 -70 -30 -142h18z" />
    <glyph glyph-name="macron" unicode="&#xaf;" horiz-adv-x="469" 
d="M138 576q-3 15 -3 36t4 47h332l-9 -80q-64 4 -166.5 4t-157.5 -7z" />
    <glyph glyph-name="degree" unicode="&#xb0;" horiz-adv-x="233" 
d="M268.5 690.5q31.5 -23.5 31.5 -73t-37 -93t-107 -43.5q-50 0 -83 25t-33 78.5t38.5 91.5t98.5 38t91.5 -23.5zM160 530q33 0 46 27t13 62q0 46 -39 46q-32 0 -46 -26t-14 -63q0 -46 40 -46z" />
    <glyph glyph-name="plusminus" unicode="&#xb1;" horiz-adv-x="545" 
d="M310 308v-142q-20 -9 -83 -9h-9v151h-139q0 61 4 90h135v138q32 8 91 8v-146h148q0 -82 -3 -90h-144zM79 12q0 66 11 90h368q0 -70 -4 -90h-375z" />
    <glyph glyph-name="twosuperior" unicode="&#xb2;" horiz-adv-x="363" 
d="M339 369q-16 -18 -37.5 -18t-51 10.5t-58.5 23.5t-36 15q-22 -18 -44 -28.5t-30 -10.5t-22.5 19.5t-14.5 29t22 28.5t45 19q6 0 24 -2q38 25 71.5 75t33.5 97t-36 47q-17 0 -37 -13.5t-34 -35.5l-34 19q59 90 148 90q51 0 79 -24t28 -72t-46.5 -102t-103.5 -92
q68 -16 91.5 -16t30.5 6l16 25l21 -6q0 -56 -25 -84z" />
    <glyph glyph-name="threesuperior" unicode="&#xb3;" horiz-adv-x="319" 
d="M139 713.5q35 20.5 84 20.5t78 -21.5t29 -53.5t-26 -56.5t-69 -35.5q99 -12 99 -94q0 -50 -38 -87.5t-102 -37.5t-106 21t-42 58q0 25 14 42q6 1 20 1q34 0 56 -24l-6 -48q8 -7 22 -7q29 0 48.5 24t19.5 61t-20.5 49t-63.5 12l-2 33q13 0 29 4q58 13 58 64q0 42 -38 42
t-70 -38l-28 22q19 29 54 49.5z" />
    <glyph glyph-name="acute" unicode="&#xb4;" horiz-adv-x="607" 
d="M447 616q0 -28 -36 -45q-49 -23 -245 -68l-18 40q94 49 170 100t94 62q10 -14 22.5 -44t12.5 -45z" />
    <glyph glyph-name="mu" unicode="&#xb5;" horiz-adv-x="503" 
d="M70 219q24 93 24 123t-36 69l1 13q55 15 181 15q3 -7 3 -25q0 -60 -28 -169.5t-28 -136.5t20 -27q29 0 67 21q4 24 20 92q36 160 36 229q35 14 126 14h19q0 -47 -28 -183.5t-28 -160t10 -23.5q6 0 57 24l19 -32q-89 -74 -156 -74q-32 0 -54.5 18t-25.5 47
q-81 -63 -140 -66q-4 -40 -4 -87.5t15 -97.5q-43 -17 -106 -23l-30 -3q-3 26 -3 52q0 116 69 391z" />
    <glyph glyph-name="mu" unicode="&#x3bc;" horiz-adv-x="503" 
d="M70 219q24 93 24 123t-36 69l1 13q55 15 181 15q3 -7 3 -25q0 -60 -28 -169.5t-28 -136.5t20 -27q29 0 67 21q4 24 20 92q36 160 36 229q35 14 126 14h19q0 -47 -28 -183.5t-28 -160t10 -23.5q6 0 57 24l19 -32q-89 -74 -156 -74q-32 0 -54.5 18t-25.5 47
q-81 -63 -140 -66q-4 -40 -4 -87.5t15 -97.5q-43 -17 -106 -23l-30 -3q-3 26 -3 52q0 116 69 391z" />
    <glyph glyph-name="paragraph" unicode="&#xb6;" horiz-adv-x="581" 
d="M357 698l219 1q6 -27 6 -79.5t-19.5 -143t-43.5 -172.5t-47 -199.5t-29 -224.5q-37 -20 -86 -20h-10q2 82 69.5 372.5t73.5 396.5q-54 0 -67 -8q-6 -109 -79.5 -395t-80.5 -371q-37 -20 -86 -20h-10q4 76 59 326h-9q-74 0 -117 53t-43 150q0 144 81 239t219 95z" />
    <glyph glyph-name="periodcentered" unicode="&#xb7;" horiz-adv-x="289" 
d="M93.5 276.5q-19.5 20.5 -19.5 52t22 54t55 22.5t52.5 -20t19.5 -51.5t-23 -54.5t-55 -23t-51.5 20.5z" />
    <glyph glyph-name="cedilla" unicode="&#xb8;" horiz-adv-x="495" 
d="M226 -94q0 -24 24 -24t57 16l11 6l18 -34q-7 -7 -19 -17.5t-48 -28.5t-67 -18t-50 18.5t-19 49t29.5 68.5t60.5 58l64 -1q-26 -20 -43.5 -46.5t-17.5 -46.5z" />
    <glyph glyph-name="onesuperior" unicode="&#xb9;" horiz-adv-x="277" 
d="M271 733q6 -10 6 -34t-31 -158t-33 -176q-25 -11 -102 -11h-7q2 25 32 157.5t30 153.5l-2 12q-14 -7 -33.5 -22.5t-29.5 -22.5l-28 36l77 57q39 6 121 8z" />
    <glyph glyph-name="ordmasculine" unicode="&#xba;" horiz-adv-x="318" 
d="M324 627q33 -33 33 -89.5t-19 -106t-64.5 -87.5t-108.5 -38q-118 0 -118 133q0 93 52.5 157t134.5 64q57 0 90 -33zM161 551.5q-26 -57.5 -26 -126t41.5 -68.5t67 60.5t25.5 126t-41 65.5t-67 -57.5z" />
    <glyph glyph-name="guillemotright" unicode="&#xbb;" horiz-adv-x="524" 
d="M291 111l-43 34q91 114 112 157q-17 52 -80 155l42 35q35 -24 95.5 -90t60.5 -95q-3 -36 -187 -196zM95 111l-43 34q91 114 112 157q-17 52 -80 155l42 35q35 -24 95.5 -90t60.5 -95q-3 -36 -187 -196z" />
    <glyph glyph-name="onequarter" unicode="&#xbc;" horiz-adv-x="736" 
d="M619 701q-72 -164 -202 -352q-47 -68 -98 -164.5t-84 -195.5q-17 1 -43 11q-28 10 -48 27q30 86 82 180.5t99.5 166t102.5 170.5t90 190q75 -15 101 -33zM674 68q-14 0 -30 3q-7 -44 -7 -60q-23 -11 -95 -11h-4q0 14 6.5 42t9.5 43q-30 4 -65.5 4t-80.5 -13
q-6 0 -16.5 11.5t-10.5 17.5t8 17q102 135 108 145q23 37 71 103q41 8 113 10q7 -13 7 -40.5t-34 -197.5q11 -1 26.5 -1t20.5 8l8 13l24 -5q-12 -89 -59 -89zM564 152q34 151 34 174q-56 -73 -112 -168q5 0 78 -6zM278 733q6 -10 6 -34t-31 -158t-33 -176q-25 -11 -102 -11
h-7q2 25 32 157.5t30 153.5l-2 12q-14 -7 -33.5 -22.5t-29.5 -22.5l-28 36l77 57q39 6 121 8z" />
    <glyph glyph-name="onehalf" unicode="&#xbd;" horiz-adv-x="745" 
d="M619 701q-72 -164 -202 -352q-47 -68 -98 -164.5t-84 -195.5q-17 1 -43 11q-28 10 -48 27q30 86 82 180.5t99.5 166t102.5 170.5t90 190q75 -15 101 -33zM693 -4q-16 -18 -37.5 -18t-51 10.5t-58.5 23.5t-36 15q-22 -18 -44 -28.5t-30 -10.5t-22.5 19.5t-14.5 29t22 28.5
t45 19q6 0 24 -2q38 25 71.5 75t33.5 97t-36 47q-17 0 -37 -13.5t-34 -35.5l-34 19q59 90 148 90q51 0 79 -24t28 -72t-46.5 -102t-103.5 -92q68 -16 91.5 -16t30.5 6l16 25l21 -6q0 -56 -25 -84zM278 733q6 -10 6 -34t-31 -158t-33 -176q-25 -11 -102 -11h-7q2 25 32 157.5
t30 153.5l-2 12q-14 -7 -33.5 -22.5t-29.5 -22.5l-28 36l77 57q39 6 121 8z" />
    <glyph glyph-name="threequarters" unicode="&#xbe;" horiz-adv-x="792" 
d="M672 701q-72 -164 -202 -352q-47 -68 -98 -164.5t-84 -195.5q-17 1 -44 11t-47 27q30 86 82 180.5t99.5 166t102.5 170.5t90 190q75 -15 101 -33zM730 68q-14 0 -30 3q-7 -44 -7 -60q-23 -11 -95 -11h-4q0 14 6.5 42t9.5 43q-30 4 -65.5 4t-80.5 -13q-6 0 -16.5 11.5
t-10.5 17.5t8 17q102 135 108 145q23 37 71 103q41 8 113 10q7 -10 7 -39t-34 -199q11 -1 26.5 -1t20.5 8l8 13l24 -5q-12 -89 -59 -89zM620 152q34 151 34 174q-56 -73 -112 -168q5 0 78 -6zM125 713.5q35 20.5 84 20.5t78 -21.5t29 -53.5t-26 -56.5t-69 -35.5
q99 -12 99 -94q0 -50 -38 -87.5t-102 -37.5t-106 21t-42 58q0 25 14 42q6 1 20 1q34 0 56 -24l-6 -48q8 -7 22 -7q29 0 48.5 24t19.5 61t-20.5 49t-63.5 12l-2 33q13 0 29 4q58 13 58 64q0 42 -38 42t-70 -38l-28 22q19 29 54 49.5z" />
    <glyph glyph-name="questiondown" unicode="&#xbf;" horiz-adv-x="387" 
d="M5 -111q0 38 23 78.5t50 68.5q74 77 74 110q0 10 -16.5 19.5t-35.5 10.5q9 36 18 49q72 0 118.5 -30.5t46.5 -86.5q0 -34 -41 -91.5t-82 -113.5t-41 -91t35 -41q26 68 84 120q24 -7 62 -40t38 -47q0 -26 -49 -54.5t-114 -28.5t-117.5 41t-52.5 127zM310 371
q0 -33 -27.5 -58t-63.5 -25t-56 20t-20 52.5t28.5 57.5t63.5 25t55 -19.5t20 -52.5z" />
    <glyph glyph-name="Agrave" unicode="&#xc0;" 
d="M60 13q-7 -22 -31.5 -22t-55.5 27q30 88 127 283.5t126 292.5q4 16 4 22q0 15 -22 46l-8 11l2 13q85 24 188 24l61 -4q11 -15 17 -46q16 -76 16 -391q0 -122 21 -172q8 -19 16 -19t49 20l13 6l20 -36q-38 -37 -84.5 -58.5t-85.5 -21.5q-101 0 -101 157v79q-26 6 -79 6
t-116 -10q-50 -116 -77 -207zM334 292l1 116q0 152 -13 206q-8 0 -12 -2q-28 -77 -52.5 -130.5t-53 -114t-35.5 -75.5h165zM239 915q40 0 259 -132l-17 -47q-95 28 -306 83q26 96 64 96z" />
    <glyph glyph-name="Aacute" unicode="&#xc1;" 
d="M60 13q-7 -22 -31.5 -22t-55.5 27q30 88 127 283.5t126 292.5q4 16 4 22q0 15 -22 46l-8 11l2 13q85 24 188 24l61 -4q11 -15 17 -46q16 -76 16 -391q0 -122 21 -172q8 -19 16 -19t49 20l13 6l20 -36q-38 -37 -84.5 -58.5t-85.5 -21.5q-101 0 -101 157v79q-26 6 -79 6
t-116 -10q-50 -116 -77 -207zM334 292l1 116q0 152 -13 206q-8 0 -12 -2q-28 -77 -52.5 -130.5t-53 -114t-35.5 -75.5h165zM539 846q0 -28 -37 -44q-91 -26 -262 -52l-21 46q210 95 283 135q11 -16 24 -45.5t13 -39.5z" />
    <glyph glyph-name="Acircumflex" unicode="&#xc2;" 
d="M60 13q-7 -22 -31.5 -22t-55.5 27q30 88 127 283.5t126 292.5q4 16 4 22q0 15 -22 46l-8 11l2 13q85 24 188 24l61 -4q11 -15 17 -46q16 -76 16 -391q0 -122 21 -172q8 -19 16 -19t49 20l13 6l20 -36q-38 -37 -84.5 -58.5t-85.5 -21.5q-101 0 -101 157v79q-26 6 -79 6
t-116 -10q-50 -116 -77 -207zM334 292l1 116q0 152 -13 206q-8 0 -12 -2q-28 -77 -52.5 -130.5t-53 -114t-35.5 -75.5h165zM294 869q90 50 116.5 50t70.5 -51.5t71 -92.5l-34 -32q-107 54 -139 61q-51 -9 -120.5 -35.5t-78.5 -29.5l-27 37q51 43 141 93z" />
    <glyph glyph-name="Atilde" unicode="&#xc3;" 
d="M60 13q-7 -22 -31.5 -22t-55.5 27q30 88 127 283.5t126 292.5q4 16 4 22q0 15 -22 46l-8 11l2 13q85 24 188 24l61 -4q11 -15 17 -46q16 -76 16 -391q0 -122 21 -172q8 -19 16 -19t49 20l13 6l20 -36q-38 -37 -84.5 -58.5t-85.5 -21.5q-101 0 -101 157v79q-26 6 -79 6
t-116 -10q-50 -116 -77 -207zM334 292l1 116q0 152 -13 206q-8 0 -12 -2q-28 -77 -52.5 -130.5t-53 -114t-35.5 -75.5h165zM168 765q14 136 102 136q34 0 104.5 -18t93 -18t31.5 1q20 4 36 32l32 -6q-4 -41 -17 -73q-20 -56 -86 -56q-23 0 -90.5 17.5t-99 17.5t-45.5 -7.5
t-28 -32.5z" />
    <glyph glyph-name="Adieresis" unicode="&#xc4;" 
d="M60 13q-7 -22 -31.5 -22t-55.5 27q30 88 127 283.5t126 292.5q4 16 4 22q0 15 -22 46l-8 11l2 13q85 24 188 24l61 -4q11 -15 17 -46q16 -76 16 -391q0 -122 21 -172q8 -19 16 -19t49 20l13 6l20 -36q-38 -37 -84.5 -58.5t-85.5 -21.5q-101 0 -101 157v79q-26 6 -79 6
t-116 -10q-50 -116 -77 -207zM334 292l1 116q0 152 -13 206q-8 0 -12 -2q-28 -77 -52.5 -130.5t-53 -114t-35.5 -75.5h165zM213.5 782q-16.5 17 -16.5 46.5t23 50t54 20.5q65 0 65 -63q0 -28 -23.5 -49.5t-54.5 -21.5t-47.5 17zM419 782q-16 17 -16 46.5t22.5 50t53.5 20.5
q66 0 66 -63q0 -28 -24 -49.5t-55 -21.5t-47 17z" />
    <glyph glyph-name="Aring" unicode="&#xc5;" 
d="M60 13q-7 -22 -31.5 -22t-55.5 27q30 88 127 283.5t126 292.5q4 16 4 22q0 15 -22 46l-8 11l2 13q85 24 188 24l61 -4q11 -15 17 -46q16 -76 16 -391q0 -122 21 -172q8 -19 16 -19t49 20l13 6l20 -36q-38 -37 -84.5 -58.5t-85.5 -21.5q-101 0 -101 157v79q-26 6 -79 6
t-116 -10q-50 -116 -77 -207zM334 292l1 116q0 152 -13 206q-8 0 -12 -2q-28 -77 -52.5 -130.5t-53 -114t-35.5 -75.5h165zM284.5 769.5q-28.5 28.5 -28.5 71t28.5 70t79.5 27.5t79.5 -27.5t28.5 -70t-28.5 -71t-79.5 -28.5t-79.5 28.5zM310 840q0 -21 14.5 -34.5
t39.5 -13.5t38 13.5t13 34.5t-13 34.5t-38 13.5t-39.5 -13.5t-14.5 -34.5z" />
    <glyph glyph-name="AE" unicode="&#xc6;" horiz-adv-x="737" 
d="M468 365q60 10 124.5 10t93.5 -9q0 -35 -14 -62l-4 -9q-57 9 -90 9q-52 0 -100 -6l-13 -1l-3 -54q0 -131 34 -153q17 -10 56.5 -10t166.5 48l18 -51q-39 -32 -113 -60.5t-159 -28.5t-121.5 51t-36.5 154q0 52 3 88q-77 -6 -152 -25q-56 -122 -94 -241q-7 -22 -31 -24
q-31 0 -60 27q33 99 130 298t130 291q1 2 1 9q0 17 -18 47l-6 10l2 13q85 24 205 24l241 -4q29 0 71 2q3 -27 3 -39q0 -52 -37 -52q-9 0 -68 7.5t-89 7.5t-53 -3q-9 -133 -17 -264zM337 618q-13 0 -21 -4q-26 -77 -119 -276q75 14 118 17q22 235 22 263z" />
    <glyph glyph-name="Ccedilla" unicode="&#xc7;" horiz-adv-x="542" 
d="M272 -94q0 -24 24 -24t57 16l11 6l18 -34q-7 -7 -19 -17.5t-48 -28.5t-67 -18t-50 18.5t-19 47t22.5 61t51.5 56.5q-88 5 -145 79.5t-57 194.5t42 220.5t120 163.5t166.5 63t143 -40t54.5 -95.5t-33 -94.5q-32 0 -72 14t-60 34l19 101q-24 15 -63 15q-61 0 -108 -104.5
t-47 -257.5q0 -101 33.5 -146.5t81.5 -45.5q79 0 152 74l41 -37q-49 -66 -127 -106q-32 -17 -66 -25q-24 -20 -40 -45.5t-16 -44.5z" />
    <glyph glyph-name="Egrave" unicode="&#xc8;" horiz-adv-x="515" 
d="M249 -12q-70 0 -134 40q-32 20 -52.5 56t-20.5 83q0 89 59 145t142 65q-56 15 -89.5 52t-33.5 94q0 86 67.5 136.5t154.5 50.5t145 -37t58 -100q0 -22 -7.5 -43t-15.5 -30l-7 -10q-32 0 -70.5 11t-56.5 28l12 103q-15 15 -50.5 15t-56 -36.5t-20.5 -83.5t11 -71t31 -37
q31 -20 73 -28l-8 -55q-72 0 -125 -42.5t-53 -112.5q0 -44 28.5 -72.5t73.5 -28.5q82 0 168 83l40 -37q-116 -138 -263 -138zM229 915q40 0 259 -132l-17 -47q-95 28 -306 83q26 96 64 96z" />
    <glyph glyph-name="Eacute" unicode="&#xc9;" horiz-adv-x="515" 
d="M249 -12q-70 0 -134 40q-32 20 -52.5 56t-20.5 83q0 89 59 145t142 65q-56 15 -89.5 52t-33.5 94q0 86 67.5 136.5t154.5 50.5t145 -37t58 -100q0 -22 -7.5 -43t-15.5 -30l-7 -10q-32 0 -70.5 11t-56.5 28l12 103q-15 15 -50.5 15t-56 -36.5t-20.5 -83.5t11 -71t31 -37
q31 -20 73 -28l-8 -55q-72 0 -125 -42.5t-53 -112.5q0 -44 28.5 -72.5t73.5 -28.5q82 0 168 83l40 -37q-116 -138 -263 -138zM550 846q0 -28 -37 -44q-91 -26 -262 -52l-21 46q210 95 283 135q11 -16 24 -45.5t13 -39.5z" />
    <glyph glyph-name="Ecircumflex" unicode="&#xca;" horiz-adv-x="515" 
d="M249 -12q-70 0 -134 40q-32 20 -52.5 56t-20.5 83q0 89 59 145t142 65q-56 15 -89.5 52t-33.5 94q0 86 67.5 136.5t154.5 50.5t145 -37t58 -100q0 -22 -7.5 -43t-15.5 -30l-7 -10q-32 0 -70.5 11t-56.5 28l12 103q-15 15 -50.5 15t-56 -36.5t-20.5 -83.5t11 -71t31 -37
q31 -20 73 -28l-8 -55q-72 0 -125 -42.5t-53 -112.5q0 -44 28.5 -72.5t73.5 -28.5q82 0 168 83l40 -37q-116 -138 -263 -138zM278 869q90 50 116.5 50t70.5 -51.5t71 -92.5l-34 -32q-107 54 -139 61q-51 -9 -120.5 -35.5t-78.5 -29.5l-27 37q51 43 141 93z" />
    <glyph glyph-name="Edieresis" unicode="&#xcb;" horiz-adv-x="515" 
d="M249 -12q-70 0 -134 40q-32 20 -52.5 56t-20.5 83q0 89 59 145t142 65q-56 15 -89.5 52t-33.5 94q0 86 67.5 136.5t154.5 50.5t145 -37t58 -100q0 -22 -7.5 -43t-15.5 -30l-7 -10q-32 0 -70.5 11t-56.5 28l12 103q-15 15 -50.5 15t-56 -36.5t-20.5 -83.5t11 -71t31 -37
q31 -20 73 -28l-8 -55q-72 0 -125 -42.5t-53 -112.5q0 -44 28.5 -72.5t73.5 -28.5q82 0 168 83l40 -37q-116 -138 -263 -138zM217.5 782q-16.5 17 -16.5 46.5t23 50t54 20.5q65 0 65 -63q0 -28 -23.5 -49.5t-54.5 -21.5t-47.5 17zM423 782q-16 17 -16 46.5t22.5 50
t53.5 20.5q66 0 66 -63q0 -28 -24 -49.5t-55 -21.5t-47 17z" />
    <glyph glyph-name="Igrave" unicode="&#xcc;" horiz-adv-x="325" 
d="M105 915q22 0 65.5 -23t171.5 -100l-15 -51q-144 42 -286 78q26 96 64 96zM209 102q0 -22 11 -22q6 0 58 26l19 -37q-90 -81 -159 -81q-43 0 -65.5 29t-22.5 72t48.5 235.5t53.5 264.5q0 16 -10.5 38.5t-21.5 36.5l-10 14l3 15q57 17 188 17q12 -23 12 -66.5t-52 -251.5
t-52 -290z" />
    <glyph glyph-name="Iacute" unicode="&#xcd;" horiz-adv-x="325" 
d="M404 846q0 -28 -37 -44q-70 -20 -247 -47l-18 47q171 77 265 129q11 -16 24 -45.5t13 -39.5zM209 102q0 -22 11 -22q6 0 58 26l19 -37q-90 -81 -159 -81q-43 0 -65.5 29t-22.5 72t48.5 235.5t53.5 264.5q0 16 -10.5 38.5t-21.5 36.5l-10 14l3 15q57 17 188 17
q12 -23 12 -66.5t-52 -251.5t-52 -290z" />
    <glyph glyph-name="Icircumflex" unicode="&#xce;" horiz-adv-x="325" 
d="M180 870q82 49 106.5 49t63 -49t65.5 -93l-34 -32q-93 51 -124 59q-37 -7 -180 -63l-27 37q48 43 130 92zM209 102q0 -22 11 -22q6 0 58 26l19 -37q-90 -81 -159 -81q-43 0 -65.5 29t-22.5 72t48.5 235.5t53.5 264.5q0 16 -10.5 38.5t-21.5 36.5l-10 14l3 15
q57 17 188 17q12 -23 12 -66.5t-52 -251.5t-52 -290z" />
    <glyph glyph-name="Idieresis" unicode="&#xcf;" horiz-adv-x="325" 
d="M93 828q0 30 21.5 51t51.5 21q63 0 63 -64q0 -28 -22.5 -50t-53.5 -22q-60 0 -60 64zM283 828q0 30 22 51t52 21q64 0 64 -64q0 -28 -23 -50t-54 -22q-61 0 -61 64zM209 102q0 -22 11 -22q6 0 58 26l19 -37q-90 -81 -159 -81q-43 0 -65.5 29t-22.5 72t48.5 235.5
t53.5 264.5q0 16 -10.5 38.5t-21.5 36.5l-10 14l3 15q57 17 188 17q12 -23 12 -66.5t-52 -251.5t-52 -290z" />
    <glyph glyph-name="Eth" unicode="&#xd0;" horiz-adv-x="641" 
d="M307 -12q-58 0 -120 19q-52 -13 -90.5 -13t-52.5 2q4 39 62 305l7 32h-64q0 49 3 64h75q31 148 31 176t-13.5 52t-26.5 35l-14 11l3 15q26 7 106.5 15.5t140.5 8.5q139 0 210.5 -61.5t71.5 -199.5q0 -113 -37.5 -216.5t-114.5 -174t-177 -70.5zM378 647q-26 0 -59 -6
q-9 -103 -42 -244h88q0 -31 -3 -64h-99q-45 -191 -55 -261q24 -12 66 -12t79.5 33.5t60.5 83.5t40 112q29 111 29 202t-24 123.5t-81 32.5z" />
    <glyph glyph-name="Ntilde" unicode="&#xd1;" horiz-adv-x="661" 
d="M63 -4h-19q4 45 53 264.5t61 328.5q0 16 -10.5 38.5t-21.5 36.5l-10 14l3 15q56 17 193 17q13 -24 13 -47t-4 -57q125 104 204 104q52 0 84 -34t32 -95t-42.5 -232.5t-42.5 -239.5q0 -29 10 -29q9 0 50 20l13 6l20 -37q-42 -36 -87 -58.5t-81.5 -22.5t-59.5 26.5t-23 72
t41.5 226.5t41.5 231t-39 50q-59 0 -134 -59q-11 -53 -41 -177q-66 -273 -66 -342q-39 -20 -138 -20zM248 765q14 136 102 136q34 0 104.5 -18t93 -18t31.5 1q20 4 36 32l32 -6q-5 -41 -17 -73q-22 -56 -86 -56q-23 0 -90.5 17.5t-99 17.5t-45.5 -7.5t-28 -32.5z" />
    <glyph glyph-name="Ograve" unicode="&#xd2;" horiz-adv-x="636" 
d="M618 537.5q13 -44.5 13 -98.5t-12 -115t-40 -122t-68 -108t-101 -76.5t-134 -29.5q-107 0 -166 76.5t-59 197t42.5 221t122 164t176.5 63.5q64 0 112 -24t74.5 -64t39.5 -84.5zM385.5 97q32.5 41 49.5 107q34 130 34 267q0 171 -92 171q-52 0 -91 -62q-73 -117 -73 -324
q0 -113 13 -140q6 -15 16 -31q18 -29 64.5 -29t79 41zM259 915q40 0 259 -132l-17 -47q-95 28 -306 83q26 96 64 96z" />
    <glyph glyph-name="Oacute" unicode="&#xd3;" horiz-adv-x="636" 
d="M618 537.5q13 -44.5 13 -98.5t-12 -115t-40 -122t-68 -108t-101 -76.5t-134 -29.5q-107 0 -166 76.5t-59 197t42.5 221t122 164t176.5 63.5q64 0 112 -24t74.5 -64t39.5 -84.5zM385.5 97q32.5 41 49.5 107q34 130 34 267q0 171 -92 171q-52 0 -91 -62q-73 -117 -73 -324
q0 -113 13 -140q6 -15 16 -31q18 -29 64.5 -29t79 41zM584 846q0 -28 -37 -44q-91 -26 -262 -52l-21 46q210 95 283 135q11 -16 24 -45.5t13 -39.5z" />
    <glyph glyph-name="Ocircumflex" unicode="&#xd4;" horiz-adv-x="636" 
d="M618 537.5q13 -44.5 13 -98.5t-12 -115t-40 -122t-68 -108t-101 -76.5t-134 -29.5q-107 0 -166 76.5t-59 197t42.5 221t122 164t176.5 63.5q64 0 112 -24t74.5 -64t39.5 -84.5zM385.5 97q32.5 41 49.5 107q34 130 34 267q0 171 -92 171q-52 0 -91 -62q-73 -117 -73 -324
q0 -113 13 -140q6 -15 16 -31q18 -29 64.5 -29t79 41zM354 869q90 50 116.5 50t70.5 -51.5t71 -92.5l-34 -32q-107 54 -139 61q-51 -9 -120.5 -35.5t-78.5 -29.5l-27 37q51 43 141 93z" />
    <glyph glyph-name="Otilde" unicode="&#xd5;" horiz-adv-x="636" 
d="M618 537.5q13 -44.5 13 -98.5t-12 -115t-40 -122t-68 -108t-101 -76.5t-134 -29.5q-107 0 -166 76.5t-59 197t42.5 221t122 164t176.5 63.5q64 0 112 -24t74.5 -64t39.5 -84.5zM385.5 97q32.5 41 49.5 107q34 130 34 267q0 171 -92 171q-52 0 -91 -62q-73 -117 -73 -324
q0 -113 13 -140q6 -15 16 -31q18 -29 64.5 -29t79 41zM203 765q14 136 102 136q34 0 104.5 -18t93 -18t31.5 1q20 4 36 32l32 -6q-5 -41 -17 -73q-22 -56 -86 -56q-23 0 -90.5 17.5t-99 17.5t-45.5 -7.5t-28 -32.5z" />
    <glyph glyph-name="Odieresis" unicode="&#xd6;" horiz-adv-x="636" 
d="M618 537.5q13 -44.5 13 -98.5t-12 -115t-40 -122t-68 -108t-101 -76.5t-134 -29.5q-107 0 -166 76.5t-59 197t42.5 221t122 164t176.5 63.5q64 0 112 -24t74.5 -64t39.5 -84.5zM385.5 97q32.5 41 49.5 107q34 130 34 267q0 171 -92 171q-52 0 -91 -62q-73 -117 -73 -324
q0 -113 13 -140q6 -15 16 -31q18 -29 64.5 -29t79 41zM243.5 782q-16.5 17 -16.5 46.5t23 50t54 20.5q65 0 65 -63q0 -28 -23.5 -49.5t-54.5 -21.5t-47.5 17zM449 782q-16 17 -16 46.5t22.5 50t53.5 20.5q66 0 66 -63q0 -28 -24 -49.5t-55 -21.5t-47 17z" />
    <glyph glyph-name="multiply" unicode="&#xd7;" horiz-adv-x="493" 
d="M367 107l-117 117l-116 -117q-45 37 -61 59l117 118l-117 118q24 28 62 57l115 -116l115 116q39 -29 63 -57l-118 -119l117 -117q-18 -24 -60 -59z" />
    <glyph glyph-name="Oslash" unicode="&#xd8;" horiz-adv-x="636" 
d="M601.5 582q29.5 -65 29.5 -131t-12 -127t-40 -122t-68 -108t-101 -76.5t-134 -29.5q-18 0 -34 3q-27 -77 -32 -91q-29 2 -42 12q-12 7 -26 16l30 84q-59 31 -90 98t-31 169.5t42.5 203t122 164t176.5 63.5q18 0 48 -4l36 92q52 -8 63 -18q1 -1 9 -8l-36 -91
q60 -34 89.5 -99zM310 56q43 0 75.5 41t49.5 107q34 130 34 267q0 52 -7 85q-151 -381 -193 -493q15 -7 41 -7zM377 642q-52 0 -91 -62q-73 -117 -73 -324q0 -84 7 -118q40 104 192 496q-16 8 -35 8z" />
    <glyph glyph-name="Ugrave" unicode="&#xd9;" horiz-adv-x="668" 
d="M313 633q0 -52 -42.5 -240t-42.5 -238.5t37 -50.5q64 0 144 55q6 36 29 145q54 252 56 347q0 17 -2 28q80 31 161 31q3 -6 3 -30q0 -55 -48.5 -283t-48.5 -290q0 -27 9 -27t61 26l18 -37q-89 -81 -158 -81q-38 0 -63 24t-26 68q-135 -92 -224 -92q-49 0 -78.5 31.5
t-29.5 86.5t41 230.5t41 252.5q0 16 -10 38.5t-20 36.5l-10 14l2 15q55 17 186 17q15 -25 15 -77zM259 915q40 0 259 -132l-17 -47q-95 28 -306 83q26 96 64 96z" />
    <glyph glyph-name="Uacute" unicode="&#xda;" horiz-adv-x="668" 
d="M313 633q0 -52 -42.5 -240t-42.5 -238.5t37 -50.5q64 0 144 55q6 36 29 145q54 252 56 347q0 17 -2 28q80 31 161 31q3 -6 3 -30q0 -55 -48.5 -283t-48.5 -290q0 -27 9 -27t61 26l18 -37q-89 -81 -158 -81q-38 0 -63 24t-26 68q-135 -92 -224 -92q-49 0 -78.5 31.5
t-29.5 86.5t41 230.5t41 252.5q0 16 -10 38.5t-20 36.5l-10 14l2 15q55 17 186 17q15 -25 15 -77zM620 846q0 -28 -37 -44q-91 -26 -262 -52l-21 46q210 95 283 135q11 -16 24 -45.5t13 -39.5z" />
    <glyph glyph-name="Ucircumflex" unicode="&#xdb;" horiz-adv-x="668" 
d="M313 633q0 -52 -42.5 -240t-42.5 -238.5t37 -50.5q64 0 144 55q6 36 29 145q54 252 56 347q0 17 -2 28q80 31 161 31q3 -6 3 -30q0 -55 -48.5 -283t-48.5 -290q0 -27 9 -27t61 26l18 -37q-89 -81 -158 -81q-38 0 -63 24t-26 68q-135 -92 -224 -92q-49 0 -78.5 31.5
t-29.5 86.5t41 230.5t41 252.5q0 16 -10 38.5t-20 36.5l-10 14l2 15q55 17 186 17q15 -25 15 -77zM354 869q90 50 116.5 50t70.5 -51.5t71 -92.5l-34 -32q-107 54 -139 61q-51 -9 -120.5 -35.5t-78.5 -29.5l-27 37q51 43 141 93z" />
    <glyph glyph-name="Udieresis" unicode="&#xdc;" horiz-adv-x="668" 
d="M313 633q0 -52 -42.5 -240t-42.5 -238.5t37 -50.5q64 0 144 55q6 36 29 145q54 252 56 347q0 17 -2 28q80 31 161 31q3 -6 3 -30q0 -55 -48.5 -283t-48.5 -290q0 -27 9 -27t61 26l18 -37q-89 -81 -158 -81q-38 0 -63 24t-26 68q-135 -92 -224 -92q-49 0 -78.5 31.5
t-29.5 86.5t41 230.5t41 252.5q0 16 -10 38.5t-20 36.5l-10 14l2 15q55 17 186 17q15 -25 15 -77zM269.5 782q-16.5 17 -16.5 46.5t23 50t54 20.5q65 0 65 -63q0 -28 -23.5 -49.5t-54.5 -21.5t-47.5 17zM475 782q-16 17 -16 46.5t22.5 50t53.5 20.5q66 0 66 -63
q0 -28 -24 -49.5t-55 -21.5t-47 17z" />
    <glyph glyph-name="Yacute" unicode="&#xdd;" horiz-adv-x="641" 
d="M282.5 -216.5q-33.5 -7.5 -72.5 -7.5t-66.5 23t-27.5 61t25.5 69t61.5 49q73 38 133 50l26 5q1 4 12 40t16 56q-127 -76 -209 -76q-49 0 -81 31.5t-32 90t38 211t38 203.5q0 33 -30 75l-10 14l3 15q60 17 185 17q14 -30 14 -81t-38 -215.5t-38 -190.5q0 -53 36 -53
q68 0 145 39q61 251 83 474q51 26 140 26h19q0 -53 -18 -147q-23 -119 -71 -360q-21 -108 -55 -188.5t-70 -124.5t-79.5 -71t-77 -34.5zM210 -157q35 0 73 38.5t62 91.5q-47 -5 -105.5 -36.5t-58.5 -64.5q0 -12 8.5 -20.5t20.5 -8.5zM629 846q0 -28 -37 -44
q-91 -26 -262 -52l-21 46q210 95 283 135q11 -16 24 -45.5t13 -39.5z" />
    <glyph glyph-name="Thorn" unicode="&#xde;" horiz-adv-x="549" 
d="M315 587l43 1q211 0 211 -168q0 -111 -78 -188t-226 -77q-26 0 -40 1q-18 -98 -19 -139q-36 -20 -152 -20h-10q3 44 53.5 263t62.5 329q0 16 -10 38.5t-20 36.5l-11 14l3 15q59 17 187 17q12 -20 12 -53t-6 -70zM398.5 500q-19.5 26 -47.5 26t-49 -6q-9 -47 -32.5 -150
t-32.5 -148h12q78 0 123.5 59t45.5 154q0 39 -19.5 65z" />
    <glyph glyph-name="germandbls" unicode="&#xdf;" horiz-adv-x="614" 
d="M617 150q0 -71 -59.5 -116.5t-144.5 -45.5q-61 0 -99 24.5t-38 45t35.5 63t58.5 49.5q19 -7 42.5 -41.5t39.5 -83.5q32 2 32 41t-23.5 78t-52 67t-52 68t-23.5 71t12 49.5t29 34t34 33.5q42 43 42 116q0 32 -16.5 50.5t-47.5 18.5q-45 0 -68 -89.5t-52 -306.5t-47 -296
t-49 -133h-7q-28 0 -72 8.5t-63 18.5q65 192 102 500q-40 -3 -76 -9q-1 9 -1 27t4 39h80l1 5q30 171 88.5 234t172.5 63q77 0 132 -29.5t55 -92.5q0 -41 -18 -71.5t-39 -45.5q-57 -39 -57 -71q0 -40 72 -119q28 -30 50.5 -73t22.5 -81z" />
    <glyph glyph-name="agrave" unicode="&#xe0;" horiz-adv-x="480" 
d="M328 414q2 2 11 26q47 0 126 -28q-25 -83 -40 -173.5t-15 -129t8 -38.5q6 0 44 19l12 6l18 -35q-9 -8 -23.5 -20t-54.5 -32.5t-72 -20.5q-62 0 -72 56q-64 -56 -115.5 -56t-87 40t-35.5 126q0 134 55 211.5t133 77.5q56 0 108 -29zM214 73q24 0 54 19q7 141 47 279
q-30 13 -51 13q-36 0 -61.5 -70.5t-25.5 -155.5t37 -85zM203 693q27 0 88 -42q16 -11 28.5 -19.5t31.5 -22.5t31 -23q30 -25 64 -49l-22 -38q-123 47 -292 101q38 93 71 93z" />
    <glyph glyph-name="aacute" unicode="&#xe1;" horiz-adv-x="480" 
d="M328 414q2 2 11 26q47 0 126 -28q-25 -83 -40 -173.5t-15 -129t8 -38.5q6 0 44 19l12 6l18 -35q-9 -8 -23.5 -20t-54.5 -32.5t-72 -20.5q-62 0 -72 56q-64 -56 -115.5 -56t-87 40t-35.5 126q0 134 55 211.5t133 77.5q56 0 108 -29zM214 73q24 0 54 19q7 141 47 279
q-30 13 -51 13q-36 0 -61.5 -70.5t-25.5 -155.5t37 -85zM467 616q0 -28 -36 -45q-49 -23 -245 -68l-18 40q94 49 170 100t94 62q10 -14 22.5 -44t12.5 -45z" />
    <glyph glyph-name="acircumflex" unicode="&#xe2;" horiz-adv-x="480" 
d="M328 414q2 2 11 26q47 0 126 -28q-25 -83 -40 -173.5t-15 -129t8 -38.5q6 0 44 19l12 6l18 -35q-9 -8 -23.5 -20t-54.5 -32.5t-72 -20.5q-62 0 -72 56q-64 -56 -115.5 -56t-87 40t-35.5 126q0 134 55 211.5t133 77.5q56 0 108 -29zM214 73q24 0 54 19q7 141 47 279
q-30 13 -51 13q-36 0 -61.5 -70.5t-25.5 -155.5t37 -85zM358 705q33 0 127 -169l-31 -29q-86 67 -129 83q-81 -22 -189 -87l-27 37q53 51 137.5 108t111.5 57z" />
    <glyph glyph-name="atilde" unicode="&#xe3;" horiz-adv-x="480" 
d="M328 414q2 2 11 26q47 0 126 -28q-25 -83 -40 -173.5t-15 -129t8 -38.5q6 0 44 19l12 6l18 -35q-9 -8 -23.5 -20t-54.5 -32.5t-72 -20.5q-62 0 -72 56q-64 -56 -115.5 -56t-87 40t-35.5 126q0 134 55 211.5t133 77.5q56 0 108 -29zM214 73q24 0 54 19q7 141 47 279
q-30 13 -51 13q-36 0 -61.5 -70.5t-25.5 -155.5t37 -85zM115 531q14 142 101 142q34 0 99.5 -17.5t92.5 -17.5t38 6t25 30l31 -6q-4 -46 -16 -77q-23 -59 -86 -59q-23 0 -85.5 17.5t-93 17.5t-45 -8.5t-29.5 -34.5z" />
    <glyph glyph-name="adieresis" unicode="&#xe4;" horiz-adv-x="480" 
d="M328 414q2 2 11 26q47 0 126 -28q-25 -83 -40 -173.5t-15 -129t8 -38.5q6 0 44 19l12 6l18 -35q-9 -8 -23.5 -20t-54.5 -32.5t-72 -20.5q-62 0 -72 56q-64 -56 -115.5 -56t-87 40t-35.5 126q0 134 55 211.5t133 77.5q56 0 108 -29zM214 73q24 0 54 19q7 141 47 279
q-30 13 -51 13q-36 0 -61.5 -70.5t-25.5 -155.5t37 -85zM161 557q-16 18 -16 48t22.5 51.5t51.5 21.5q63 0 63 -65q0 -29 -23 -51.5t-52.5 -22.5t-45.5 18zM356.5 556.5q-15.5 17.5 -15.5 48t22.5 52t52.5 21.5t46 -17.5t16 -47t-23 -52t-53 -22.5t-45.5 17.5z" />
    <glyph glyph-name="aring" unicode="&#xe5;" horiz-adv-x="480" 
d="M328 414q2 2 11 26q47 0 126 -28q-25 -83 -40 -173.5t-15 -129t8 -38.5q6 0 44 19l12 6l18 -35q-9 -8 -23.5 -20t-54.5 -32.5t-72 -20.5q-62 0 -72 56q-64 -56 -115.5 -56t-87 40t-35.5 126q0 134 55 211.5t133 77.5q56 0 108 -29zM214 73q24 0 54 19q7 141 47 279
q-30 13 -51 13q-36 0 -61.5 -70.5t-25.5 -155.5t37 -85zM203 627q0 46 28.5 75.5t81.5 29.5t81.5 -29.5t28.5 -75.5t-28.5 -76t-81.5 -30t-81.5 30t-28.5 76zM261 627q0 -22 13.5 -35.5t38 -13.5t37 13.5t12.5 35.5t-12.5 35.5t-37 13.5t-38 -13.5t-13.5 -35.5z" />
    <glyph glyph-name="ae" unicode="&#xe6;" horiz-adv-x="645" 
d="M220 443q55 0 106 -28q6 15 13 25q28 -5 72 -26q53 29 110 29t95 -29t38 -77.5t-24.5 -81.5t-59.5 -51q-71 -35 -130 -44l-24 -3q7 -94 77 -94q24 0 51 12t42 24l15 12l24 -32q-8 -11 -32 -29t-45 -30q-58 -32 -120 -32q-93 0 -131 82q-24 -31 -70 -56.5t-78 -25.5
q-46 0 -81.5 40t-35.5 126q0 134 55 211.5t133 77.5zM285 106q-7 20 -7 100t30 168q-23 10 -44 10q-36 0 -61.5 -70.5t-25.5 -155.5t37.5 -85t70.5 33zM496 249q30 34 30 88t-32 54q-38 0 -58.5 -64.5t-20.5 -120.5q51 9 81 43z" />
    <glyph glyph-name="ccedilla" unicode="&#xe7;" horiz-adv-x="397" 
d="M260 393q-40 0 -64 -66.5t-24 -142.5q0 -120 74 -120q24 0 51 11.5t43 22.5l15 12l23 -31q-7 -7 -19 -18.5t-49.5 -34.5t-75.5 -32q-25 -18 -43.5 -44t-18.5 -50.5t24 -24.5t57 19l11 7l18 -28q-7 -7 -19 -17.5t-48 -28t-67 -17.5t-50 18.5t-19 48t25 60t57 52.5
q-68 7 -101.5 57t-33.5 130q0 119 65.5 193t168.5 74q67 0 106.5 -30.5t39.5 -75t-28 -76.5q-25 0 -58 11t-50 27l15 88q-9 6 -25 6z" />
    <glyph glyph-name="egrave" unicode="&#xe8;" horiz-adv-x="399" 
d="M26 173q0 125 75.5 197.5t171.5 72.5q59 0 97 -29t38 -77.5t-24.5 -81.5t-59.5 -51q-71 -35 -130 -44l-24 -3q7 -94 77 -94q24 0 51 12t42 24l15 12l24 -32q-8 -11 -32 -29t-45 -30q-58 -32 -127 -32t-109 49t-40 136zM250 249q30 34 30 88t-32 54q-38 0 -58.5 -64.5
t-20.5 -120.5q51 9 81 43zM157 693q27 0 88 -42q16 -11 28.5 -19.5t31.5 -22.5t31 -23q30 -25 64 -49l-22 -38q-123 47 -292 101q38 93 71 93z" />
    <glyph glyph-name="eacute" unicode="&#xe9;" horiz-adv-x="399" 
d="M26 173q0 125 75.5 197.5t171.5 72.5q59 0 97 -29t38 -77.5t-24.5 -81.5t-59.5 -51q-71 -35 -130 -44l-24 -3q7 -94 77 -94q24 0 51 12t42 24l15 12l24 -32q-8 -11 -32 -29t-45 -30q-58 -32 -127 -32t-109 49t-40 136zM250 249q30 34 30 88t-32 54q-38 0 -58.5 -64.5
t-20.5 -120.5q51 9 81 43zM411 616q0 -28 -36 -45q-49 -23 -245 -68l-18 40q94 49 170 100t94 62q10 -14 22.5 -44t12.5 -45z" />
    <glyph glyph-name="ecircumflex" unicode="&#xea;" horiz-adv-x="399" 
d="M26 173q0 125 75.5 197.5t171.5 72.5q59 0 97 -29t38 -77.5t-24.5 -81.5t-59.5 -51q-71 -35 -130 -44l-24 -3q7 -94 77 -94q24 0 51 12t42 24l15 12l24 -32q-8 -11 -32 -29t-45 -30q-58 -32 -127 -32t-109 49t-40 136zM250 249q30 34 30 88t-32 54q-38 0 -58.5 -64.5
t-20.5 -120.5q51 9 81 43zM331 705q33 0 127 -169l-31 -29q-86 67 -129 83q-81 -22 -189 -87l-27 37q53 51 137.5 108t111.5 57z" />
    <glyph glyph-name="edieresis" unicode="&#xeb;" horiz-adv-x="399" 
d="M26 173q0 125 75.5 197.5t171.5 72.5q59 0 97 -29t38 -77.5t-24.5 -81.5t-59.5 -51q-71 -35 -130 -44l-24 -3q7 -94 77 -94q24 0 51 12t42 24l15 12l24 -32q-8 -11 -32 -29t-45 -30q-58 -32 -127 -32t-109 49t-40 136zM250 249q30 34 30 88t-32 54q-38 0 -58.5 -64.5
t-20.5 -120.5q51 9 81 43zM125 557q-16 18 -16 48t22.5 51.5t51.5 21.5q63 0 63 -65q0 -29 -23 -51.5t-52.5 -22.5t-45.5 18zM320.5 556.5q-15.5 17.5 -15.5 48t22.5 52t52.5 21.5t46 -17.5t16 -47t-23 -52t-53 -22.5t-45.5 17.5z" />
    <glyph glyph-name="igrave" unicode="&#xec;" horiz-adv-x="273" 
d="M96 688q20 0 57.5 -24.5t68 -51.5t84.5 -76l-22 -38q-203 79 -259 97q38 93 71 93zM183 98q0 -27 9 -27q6 0 46 19l12 6l17 -35q-9 -8 -24 -20t-56 -32.5t-76 -20.5t-55 21.5t-20 58t25 130t25 121.5q0 42 -26 79l-9 12l1 13q53 15 172 15q13 -15 13 -58t-26 -142.5
t-27 -117t-1 -22.5z" />
    <glyph glyph-name="iacute" unicode="&#xed;" horiz-adv-x="273" 
d="M49 545q84 45 238 155q10 -14 22.5 -44t12.5 -45q0 -28 -36 -45q-76 -35 -219 -62zM183 98q0 -27 9 -27q6 0 46 19l12 6l17 -35q-9 -8 -24 -20t-56 -32.5t-76 -20.5t-55 21.5t-20 58t25 130t25 121.5q0 42 -26 79l-9 12l1 13q53 15 172 15q13 -15 13 -58t-26 -142.5
t-27 -117t-1 -22.5z" />
    <glyph glyph-name="icircumflex" unicode="&#xee;" horiz-adv-x="273" 
d="M238 705q28 0 111 -166l-33 -32q-4 3 -16 14t-16.5 15t-14.5 13t-16 13l-15 10q-19 14 -30 18q-63 -20 -159 -87l-28 40q45 50 119 106t98 56zM183 98q0 -27 9 -27q6 0 46 19l12 6l17 -35q-9 -8 -24 -20t-56 -32.5t-76 -20.5t-55 21.5t-20 58t25 130t25 121.5
q0 42 -26 79l-9 12l1 13q53 15 172 15q13 -15 13 -58t-26 -142.5t-27 -117t-1 -22.5z" />
    <glyph glyph-name="idieresis" unicode="&#xef;" horiz-adv-x="281" 
d="M51 604q0 31 21 52.5t50 21.5q62 0 62 -65q0 -29 -22.5 -51.5t-52.5 -22.5q-58 0 -58 65zM232 556.5q-15 17.5 -15 48t22 52t51 21.5q61 0 61 -65q0 -29 -22 -51.5t-52 -22.5t-45 17.5zM191 98q0 -27 9 -27q6 0 46 19l12 6l17 -35q-9 -8 -24 -20t-56 -32.5t-76 -20.5
t-55 21.5t-20 58t25 130t25 121.5q0 42 -26 79l-9 12l1 13q53 15 172 15q13 -15 13 -58t-26 -142.5t-27 -117t-1 -22.5z" />
    <glyph glyph-name="eth" unicode="&#xf0;" horiz-adv-x="474" 
d="M464 301q0 -93 -36 -171q-67 -142 -218 -142q-91 0 -139.5 52.5t-48.5 146t66 175t169 81.5q22 0 47 -5q-11 60 -29 105l-117 -35q-17 19 -17 58l105 31q-41 62 -109 100l23 37q104 -27 181 -110l125 37q12 -31 12 -54l-1 -4l-97 -29q84 -125 84 -273zM314 298
q0 43 -3 82q-14 3 -26 3q-62 0 -92.5 -67t-30.5 -152q0 -113 59 -113q49 0 71 72t22 175z" />
    <glyph glyph-name="ntilde" unicode="&#xf1;" horiz-adv-x="508" 
d="M57 -3h-19q0 47 28.5 180t28.5 151q0 33 -28 70l-9 12l1 13q54 15 173 15q13 -17 14 -62q87 67 147 67q36 0 57.5 -25t21.5 -62.5t-23 -129.5t-23 -123.5t8 -31.5q6 0 42 19l12 6l18 -35q-9 -8 -24 -20t-55.5 -32.5t-72.5 -20.5q-73 0 -73 83q0 35 22.5 129t22.5 121
t-17 27q-29 0 -71 -25q-3 -17 -20 -90q-35 -157 -35 -222q-35 -14 -126 -14zM131 525q14 142 101 142q34 0 99.5 -17.5t92.5 -17.5t38 6t25 30l31 -6q-4 -46 -16 -77q-23 -59 -86 -59q-23 0 -85.5 17.5t-93 17.5t-45 -8.5t-29.5 -34.5z" />
    <glyph glyph-name="ograve" unicode="&#xf2;" horiz-adv-x="409" 
d="M170 -12q-69 0 -108 48.5t-39 135.5q0 111 59.5 191t164.5 80l36 -2q17 9 38 9q79 0 79 -149q41 2 83 11l16 4l6 -39q-33 -14 -89 -25l-20 -4q-19 -105 -77 -182.5t-149 -77.5zM224 74q42 0 75.5 54t46.5 114q-107 0 -107 80q0 32 13 60l5 10q-4 2 -10 2t-9 -2
q-25 -16 -47 -75t-22 -135q0 -108 55 -108zM174 693q27 0 88 -42q16 -11 28.5 -19.5t31.5 -22.5t31 -23q30 -25 64 -49l-22 -38q-123 47 -292 101q38 93 71 93z" />
    <glyph glyph-name="oacute" unicode="&#xf3;" horiz-adv-x="409" 
d="M170 -12q-69 0 -108 48.5t-39 135.5q0 111 59.5 191t164.5 80l36 -2q17 9 38 9q79 0 79 -149q41 2 83 11l16 4l6 -39q-33 -14 -89 -25l-20 -4q-19 -105 -77 -182.5t-149 -77.5zM224 74q42 0 75.5 54t46.5 114q-107 0 -107 80q0 32 13 60l5 10q-4 2 -10 2t-9 -2
q-25 -16 -47 -75t-22 -135q0 -108 55 -108zM420 616q0 -28 -36 -45q-49 -23 -245 -68l-18 40q94 49 170 100t94 62q10 -14 22.5 -44t12.5 -45z" />
    <glyph glyph-name="ocircumflex" unicode="&#xf4;" horiz-adv-x="409" 
d="M170 -12q-69 0 -108 48.5t-39 135.5q0 111 59.5 191t164.5 80l36 -2q17 9 38 9q79 0 79 -149q41 2 83 11l16 4l6 -39q-33 -14 -89 -25l-20 -4q-19 -105 -77 -182.5t-149 -77.5zM224 74q42 0 75.5 54t46.5 114q-107 0 -107 80q0 32 13 60l5 10q-4 2 -10 2t-9 -2
q-25 -16 -47 -75t-22 -135q0 -108 55 -108zM328 705q33 0 127 -169l-31 -29q-86 67 -129 83q-81 -22 -189 -87l-27 37q53 51 137.5 108t111.5 57z" />
    <glyph glyph-name="otilde" unicode="&#xf5;" horiz-adv-x="409" 
d="M170 -12q-69 0 -108 48.5t-39 135.5q0 111 59.5 191t164.5 80l36 -2q17 9 38 9q79 0 79 -149q41 2 83 11l16 4l6 -39q-33 -14 -89 -25l-20 -4q-19 -105 -77 -182.5t-149 -77.5zM224 74q42 0 75.5 54t46.5 114q-107 0 -107 80q0 32 13 60l5 10q-4 2 -10 2t-9 -2
q-25 -16 -47 -75t-22 -135q0 -108 55 -108zM67 531q14 142 101 142q34 0 99.5 -17.5t92.5 -17.5t38 6t25 30l31 -6q-4 -46 -16 -77q-23 -59 -86 -59q-23 0 -85.5 17.5t-93 17.5t-45 -8.5t-29.5 -34.5z" />
    <glyph glyph-name="odieresis" unicode="&#xf6;" horiz-adv-x="409" 
d="M170 -12q-69 0 -108 48.5t-39 135.5q0 111 59.5 191t164.5 80l36 -2q17 9 38 9q79 0 79 -149q41 2 83 11l16 4l6 -39q-33 -14 -89 -25l-20 -4q-19 -105 -77 -182.5t-149 -77.5zM224 74q42 0 75.5 54t46.5 114q-107 0 -107 80q0 32 13 60l5 10q-4 2 -10 2t-9 -2
q-25 -16 -47 -75t-22 -135q0 -108 55 -108zM122 557q-16 18 -16 48t22.5 51.5t51.5 21.5q63 0 63 -65q0 -29 -23 -51.5t-52.5 -22.5t-45.5 18zM317.5 556.5q-15.5 17.5 -15.5 48t22.5 52t52.5 21.5t46 -17.5t16 -47t-23 -52t-53 -22.5t-45.5 17.5z" />
    <glyph glyph-name="divide" unicode="&#xf7;" horiz-adv-x="512" 
d="M70 238q0 63 11 87h369q0 -67 -6 -87h-374zM206 402q-16 18 -16 47.5t22 51.5t52 22t46.5 -18t16.5 -46.5t-22.5 -51.5t-52.5 -23t-46 18zM198 58q-16 18 -16 47.5t22 51.5t52 22t46.5 -18t16.5 -46.5t-22.5 -51.5t-52.5 -23t-46 18z" />
    <glyph glyph-name="oslash" unicode="&#xf8;" horiz-adv-x="412" 
d="M23 172q0 111 59.5 191t164.5 80q24 0 32 -2l27 86q32 0 62 -19q-14 -41 -28 -88q59 -36 60 -136q0 -54 -21 -114t-65 -111.5t-100 -65.5l-23 -85q-31 0 -53 9l-7 5l19 68q-59 8 -93 56t-34 126zM185 317.5q-33 -67.5 -33 -136t26 -92.5q58 211 85 300q-45 -4 -78 -71.5z
M309.5 151.5q32.5 61.5 32.5 124t-20 88.5q-46 -145 -85 -287q40 13 72.5 74.5z" />
    <glyph glyph-name="ugrave" unicode="&#xf9;" horiz-adv-x="499" 
d="M64 221.5q26 103.5 26 127t-36 62.5l1 13q68 14 179 14q5 -13 5 -47t-28 -145t-28 -138t20 -27q29 0 67 21q4 24 20 92q36 160 36 229q35 14 126 14h19q0 -47 -28 -183.5t-28 -160t10 -23.5q6 0 57 24l19 -32q-89 -74 -156 -74q-32 0 -54.5 18t-25.5 47q-81 -66 -147 -66
q-35 0 -57.5 23t-22.5 65.5t26 146zM183 693q27 0 88 -42q16 -11 28.5 -19.5t31.5 -22.5t31 -23q30 -25 64 -49l-22 -38q-123 47 -292 101q38 93 71 93z" />
    <glyph glyph-name="uacute" unicode="&#xfa;" horiz-adv-x="499" 
d="M64 221.5q26 103.5 26 127t-36 62.5l1 13q68 14 179 14q5 -13 5 -47t-28 -145t-28 -138t20 -27q29 0 67 21q4 24 20 92q36 160 36 229q35 14 126 14h19q0 -47 -28 -183.5t-28 -160t10 -23.5q6 0 57 24l19 -32q-89 -74 -156 -74q-32 0 -54.5 18t-25.5 47q-81 -66 -147 -66
q-35 0 -57.5 23t-22.5 65.5t26 146zM459 616q0 -28 -36 -45q-49 -23 -245 -68l-18 40q94 49 170 100t94 62q10 -14 22.5 -44t12.5 -45z" />
    <glyph glyph-name="ucircumflex" unicode="&#xfb;" horiz-adv-x="499" 
d="M64 221.5q26 103.5 26 127t-36 62.5l1 13q68 14 179 14q5 -13 5 -47t-28 -145t-28 -138t20 -27q29 0 67 21q4 24 20 92q36 160 36 229q35 14 126 14h19q0 -47 -28 -183.5t-28 -160t10 -23.5q6 0 57 24l19 -32q-89 -74 -156 -74q-32 0 -54.5 18t-25.5 47q-81 -66 -147 -66
q-35 0 -57.5 23t-22.5 65.5t26 146zM348 705q33 0 127 -169l-31 -29q-86 67 -129 83q-81 -22 -189 -87l-27 37q53 51 137.5 108t111.5 57z" />
    <glyph glyph-name="udieresis" unicode="&#xfc;" horiz-adv-x="499" 
d="M64 221.5q26 103.5 26 127t-36 62.5l1 13q68 14 179 14q5 -13 5 -47t-28 -145t-28 -138t20 -27q29 0 67 21q4 24 20 92q36 160 36 229q35 14 126 14h19q0 -47 -28 -183.5t-28 -160t10 -23.5q6 0 57 24l19 -32q-89 -74 -156 -74q-32 0 -54.5 18t-25.5 47q-81 -66 -147 -66
q-35 0 -57.5 23t-22.5 65.5t26 146zM161 557q-16 18 -16 48t22.5 51.5t51.5 21.5q63 0 63 -65q0 -29 -23 -51.5t-52.5 -22.5t-45.5 18zM356.5 556.5q-15.5 17.5 -15.5 48t22.5 52t52.5 21.5t46 -17.5t16 -47t-23 -52t-53 -22.5t-45.5 17.5z" />
    <glyph glyph-name="yacute" unicode="&#xfd;" horiz-adv-x="457" 
d="M442 616q0 -28 -36 -45q-49 -23 -245 -68l-18 40q94 49 170 100t94 62q10 -14 22.5 -44t12.5 -45zM133 -147q0 -19 21.5 -19t48.5 20.5t45 66.5q-48 -9 -81.5 -29t-33.5 -39zM118 -4q-84 0 -84 92q0 22 20 127t20 175q0 15 -4 28q54 21 148 21q5 -14 5 -48t-22 -141
t-22 -138t26 -31q31 0 75 31q5 59 40 311q35 14 126 14h19q-19 -75 -37 -216t-29 -196q-21 -110 -77.5 -179.5t-147.5 -69.5q-36 0 -65.5 19t-29.5 49q0 40 49 73t132 51q9 44 14 85q-81 -57 -156 -57z" />
    <glyph glyph-name="thorn" unicode="&#xfe;" horiz-adv-x="459" 
d="M1 -224q-5 12 -5 60.5t32.5 209t65.5 338t33 282.5q0 16 -5 41q78 27 149 27q5 -14 5 -36q0 -90 -43 -291q54 36 100.5 36t81 -40.5t34.5 -123.5q0 -128 -60 -209.5t-141 -81.5q-50 0 -94 19q-16 -110 -16 -204q-54 -22 -137 -27zM298 339.5q-10 18.5 -29 18.5t-49 -12
q-45 -207 -58 -285q24 -11 54 -11q42 0 67 66.5t25 135.5t-10 87.5z" />
    <glyph glyph-name="ydieresis" unicode="&#xff;" horiz-adv-x="457" 
d="M149 557q-16 18 -16 48t22.5 51.5t51.5 21.5q63 0 63 -65q0 -29 -23 -51.5t-52.5 -22.5t-45.5 18zM344.5 556.5q-15.5 17.5 -15.5 48t22.5 52t52.5 21.5t46 -17.5t16 -47t-23 -52t-53 -22.5t-45.5 17.5zM133 -147q0 -19 21.5 -19t48.5 20.5t45 66.5q-48 -9 -81.5 -29
t-33.5 -39zM118 -4q-84 0 -84 92q0 22 20 127t20 175q0 15 -4 28q54 21 148 21q5 -14 5 -48t-22 -141t-22 -138t26 -31q31 0 75 31q5 59 40 311q35 14 126 14h19q-19 -75 -37 -216t-29 -196q-21 -110 -77.5 -179.5t-147.5 -69.5q-36 0 -65.5 19t-29.5 49q0 40 49 73t132 51
q9 44 14 85q-81 -57 -156 -57z" />
    <glyph glyph-name="hbar" unicode="&#x127;" horiz-adv-x="496" 
d="M141 583q6 42 6 76t-6 48q78 27 147 27q9 -9 9 -44t-12 -107h149q0 -36 -5 -61h-157q-7 -31 -31 -138q81 59 142 59q38 0 57.5 -24t19.5 -63.5t-23 -129t-23 -122.5t8 -33t42 18l12 6l18 -35q-9 -8 -24 -20t-55 -32t-73.5 -20t-53.5 21.5t-20 58t22.5 133t22.5 122
t-21 25.5q-26 0 -65 -22q-55 -242 -55 -314q-42 -16 -143 -16q-1 17 -1 40.5t18 106t45 196t40 183.5h-65q0 39 5 61h70z" />
    <glyph glyph-name="Itilde" unicode="&#x128;" horiz-adv-x="325" 
d="M408 892q-9 -129 -96 -129q-22 0 -74 16.5t-78 16.5t-39.5 -7.5t-26.5 -30.5l-33 7q5 48 16 77q22 57 79 57q27 0 81 -16t78.5 -16t37 5.5t23.5 25.5zM209 102q0 -22 11 -22q6 0 58 26l19 -37q-90 -81 -159 -81q-43 0 -65.5 29t-22.5 72t48.5 235.5t53.5 264.5
q0 16 -10.5 38.5t-21.5 36.5l-10 14l3 15q57 17 188 17q12 -23 12 -66.5t-52 -251.5t-52 -290z" />
    <glyph glyph-name="itilde" unicode="&#x129;" horiz-adv-x="273" 
d="M33 533q11 132 93 132q24 0 72.5 -13.5t67 -13.5t31 5.5t25.5 22.5l31 -6q-3 -36 -15 -72q-18 -54 -84 -54q-18 0 -65 13.5t-67 13.5t-30.5 -7t-26.5 -28zM183 98q0 -27 9 -27q6 0 46 19l12 6l17 -35q-9 -8 -24 -20t-56 -32.5t-76 -20.5t-55 21.5t-20 58t25 130t25 121.5
q0 42 -26 79l-9 12l1 13q53 15 172 15q13 -15 13 -58t-26 -142.5t-27 -117t-1 -22.5z" />
    <glyph glyph-name="dotlessi" unicode="&#x131;" horiz-adv-x="273" 
d="M183 98q0 -27 9 -27q6 0 46 19l12 6l17 -35q-9 -8 -24 -20t-56 -32.5t-76 -20.5t-55 21.5t-20 58t25 130t25 121.5q0 42 -26 79l-9 12l1 13q53 15 172 15q13 -15 13 -58t-26 -142.5t-27 -117t-1 -22.5z" />
    <glyph glyph-name="IJ" unicode="&#x132;" horiz-adv-x="730" 
d="M209 102q0 -22 10.5 -22t42.5 16l19 -37q-44 -39 -76 -55t-71 -16t-61.5 29t-22.5 72t48.5 235.5t53.5 264.5q0 16 -10.5 38.5t-21.5 36.5l-10 14l3 15q57 17 188 17q12 -23 12 -66.5t-52 -251.5t-52 -290zM488 709l203 -7l106 4q2 -11 2 -33.5t-7.5 -32t-24.5 -9.5
t-73 2q-40 -335 -78 -487q-19 -74 -50 -112q-16 -19 -43 -32.5t-68 -13.5t-84.5 27.5t-70.5 68.5l28 31q12 -11 37 -24t43 -13q30 0 52.5 60.5t46 212.5t23.5 247v41q-80 0 -117 -9q-13 26 -18 68q25 11 93 11z" />
    <glyph glyph-name="ij" unicode="&#x133;" horiz-adv-x="528" 
d="M210 236.5q-27 -102.5 -27 -134t9 -31.5q6 0 46 19l12 6l17 -35q-9 -8 -24 -20t-56 -32.5t-76 -20.5t-55 21.5t-20 58t25 130t25 121.5q0 42 -26 79l-9 12l1 13q53 15 172 15q13 -15 13 -57t-27 -144.5zM103 600q0 33 27.5 58t63.5 25t56 -20t20 -52.5t-28.5 -57.5
t-63.5 -25t-55 19.5t-20 52.5zM361 333q0 23 -29 63l-9 14l1 13q57 15 172 15q13 -15 13 -55.5t-24.5 -188.5t-41 -213t-34.5 -102.5t-56.5 -70t-82 -32.5t-80.5 19t-56 37l-18 19l22 32q49 -29 73 -29q38 0 68 53t56 210.5t26 215.5zM377 600q0 33 27.5 58t63.5 25t56 -20
t20 -52.5t-28.5 -57.5t-63.5 -25t-55 19.5t-20 52.5z" />
    <glyph glyph-name="Jcircumflex" unicode="&#x134;" horiz-adv-x="415" 
d="M233 870q82 49 106.5 49t63 -49t65.5 -93l-34 -32q-93 51 -124 59q-37 -7 -180 -63l-27 37q48 43 130 92zM173 709l203 -7l106 4q2 -11 2 -33.5t-7.5 -32t-24.5 -9.5t-73 2q-40 -335 -79 -487q-18 -74 -49 -112q-16 -19 -43 -32.5t-68 -13.5t-84.5 27.5t-70.5 68.5l28 31
q12 -11 37 -24t43 -13q30 0 52.5 60.5t46 212.5t23.5 247v41q-79 0 -117 -9q-13 26 -18 68q25 11 93 11z" />
    <glyph glyph-name="jcircumflex" unicode="&#x135;" horiz-adv-x="256" 
d="M230 704q28 0 112 -167l-34 -31q-4 3 -16 14t-16.5 15t-14.5 13t-16 13l-15 10q-19 14 -30 18q-63 -20 -159 -87l-28 40q45 50 119 106t98 56zM89 333q0 23 -29 63l-9 14l1 13q57 15 172 15q13 -15 13 -55.5t-24.5 -188.5t-41 -213t-34.5 -102.5t-56.5 -70t-82 -32.5
t-80.5 19t-56 37l-18 19l22 32q49 -29 73 -29q38 0 68 53t56 210.5t26 215.5z" />
    <glyph glyph-name="kcommaaccent" unicode="&#x137;" horiz-adv-x="508" 
d="M310 -90q0 -84 -88 -172l-34 18q20 41 26 88l-59 51q4 21 27.5 51t47.5 40q32 0 56 -25t24 -51zM143 660q0 33 -6 47q78 27 147 27q9 -9 9 -46q0 -83 -55 -318q89 73 176 73q39 0 66 -24t27 -70q0 -86 -141 -125q33 -104 58 -141q11 -16 16 -16q11 0 46 17l11 5l16 -34
q-24 -22 -66.5 -44.5t-77.5 -22.5q-78 0 -109 142q-14 61 -17 114q64 15 95.5 36.5t31.5 55t-34 33.5t-114 -68q-50 -211 -50 -289q-55 -16 -143 -16q-1 17 -1 30q0 43 57.5 294t57.5 340z" />
    <glyph glyph-name="kgreenlandic" unicode="&#x138;" horiz-adv-x="520" 
d="M57 -3h-19q0 47 28.5 180t28.5 151q0 33 -28 70l-9 12l1 13q54 15 173 15q14 -17 14 -64q0 -1 -0.5 -3.5t-0.5 -4.5q91 77 181 77q39 0 66 -24t27 -70q0 -86 -141 -125q33 -104 58 -141q11 -16 16 -16q11 0 46 17l11 5l16 -34q-24 -22 -66.5 -44.5t-77.5 -22.5
q-78 0 -109 142q-14 61 -17 114q64 15 95.5 36.5t31.5 55t-31 33.5q-36 0 -117 -67q-51 -221 -51 -291q-35 -14 -126 -14z" />
    <glyph glyph-name="Ldotaccent" unicode="&#x13f;" horiz-adv-x="535" 
d="M395.5 312.5q-17.5 19.5 -17.5 51t24.5 55t56.5 23.5t49 -19t17 -49.5t-25 -55.5t-56 -25t-48.5 19.5zM442.5 -1q-25.5 -18 -60 -18t-103 42t-109.5 54q-27 -36 -61 -60t-47 -24q-10 0 -40 43.5t-30 62.5q0 11 31.5 33t66.5 30q25 61 52 180.5t42 246.5q0 16 -10.5 38.5
t-21.5 36.5l-10 14l3 15q60 17 197 17q13 -22 13 -67t-26 -134t-71.5 -213.5t-52.5 -147.5q4 -1 25 -7t27.5 -7.5t25.5 -6t30 -6t29 -3.5q31 -5 58.5 -5t39.5 14l28 52l33 -8q0 -65 -21 -123q-12 -31 -37.5 -49z" />
    <glyph glyph-name="ldot" unicode="&#x140;" horiz-adv-x="399" 
d="M291.5 313.5q-17.5 19.5 -17.5 51t24.5 55t56.5 23.5t49 -19t17 -49.5t-25 -55.5t-56 -25t-48.5 19.5zM50.5 11q-22.5 23 -22.5 64.5t49.5 265t49.5 322.5l-6 44q78 27 146 27q10 -14 10 -49q0 -80 -50.5 -309.5t-50.5 -267t9 -37.5l70 25l18 -35q-34 -27 -82.5 -50
t-83 -23t-57 23z" />
    <glyph glyph-name="Lslash" unicode="&#x141;" horiz-adv-x="514" 
d="M146 306l-109 -38q-15 13 -18 63q64 23 143 47q21 101 35 211q0 16 -10.5 38.5t-20.5 36.5l-11 14l3 15q60 17 197 17q13 -22 13 -73t-56 -223q121 37 166 49q15 -31 15 -64q-57 -17 -209 -66l-4 -11q-59 -166 -62 -174q4 -1 25 -7t27.5 -7.5t25.5 -6t30 -6t28 -3.5
q32 -5 59.5 -5t39.5 14l28 52l33 -8q0 -65 -22 -123q-11 -31 -36.5 -49t-60 -18t-103 42t-109.5 54q-27 -36 -61 -60t-47 -24q-10 0 -40 43.5t-30 62.5q0 11 31.5 33t66.5 30q23 59 43 144z" />
    <glyph glyph-name="lslash" unicode="&#x142;" horiz-adv-x="346" 
d="M287 464q32 16 74 40q20 -23 26 -55q-16 -9 -55 -28t-60 -30l-6 -27q-48 -220 -48 -256.5t9 -36.5l70 25l18 -35q-34 -27 -82.5 -50t-83 -23t-57 23t-22.5 64t45 244l-85 -50q-16 17 -28 56q85 45 129 71q38 180 38 267l-6 44q78 27 146 27q10 -14 10 -66.5t-32 -203.5z
" />
    <glyph glyph-name="Nacute" unicode="&#x143;" horiz-adv-x="661" 
d="M63 -4h-19q4 45 53 264.5t61 328.5q0 16 -10.5 38.5t-21.5 36.5l-10 14l3 15q56 17 193 17q13 -24 13 -47t-4 -57q125 104 204 104q52 0 84 -34t32 -95t-42.5 -232.5t-42.5 -239.5q0 -29 10 -29q9 0 50 20l13 6l20 -37q-42 -36 -87 -58.5t-81.5 -22.5t-59.5 26.5t-23 72
t41.5 226.5t41.5 231t-39 50q-59 0 -134 -59q-11 -53 -41 -177q-66 -273 -66 -342q-39 -20 -138 -20zM639 846q0 -28 -37 -44q-91 -26 -262 -52l-21 46q210 95 283 135q11 -16 24 -45.5t13 -39.5z" />
    <glyph glyph-name="nacute" unicode="&#x144;" horiz-adv-x="508" 
d="M57 -3h-19q0 47 28.5 180t28.5 151q0 33 -28 70l-9 12l1 13q54 15 173 15q13 -17 14 -62q87 67 147 67q36 0 57.5 -25t21.5 -62.5t-23 -129.5t-23 -123.5t8 -31.5q6 0 42 19l12 6l18 -35q-9 -8 -24 -20t-55.5 -32.5t-72.5 -20.5q-73 0 -73 83q0 35 22.5 129t22.5 121
t-17 27q-29 0 -71 -25q-3 -17 -20 -90q-35 -157 -35 -222q-35 -14 -126 -14zM442 616q0 -28 -36 -45q-49 -23 -245 -68l-18 40q94 49 170 100t94 62q10 -14 22.5 -44t12.5 -45z" />
    <glyph glyph-name="OE" unicode="&#x152;" horiz-adv-x="861" 
d="M586 377q71 10 135 10t91 -9q0 -35 -14 -62l-4 -9q-63 9 -105 9l-113 -7q-14 -48 -14 -109q0 -120 100 -120q49 0 181 48l18 -51q-36 -30 -109.5 -59.5t-143.5 -29.5q-96 0 -159 48q-77 -48 -178.5 -48t-160.5 76.5t-59 208.5q0 138 61 249q64 118 174 164q60 24 128 24
l168 -5q169 0 271 3q3 -25 3 -41q0 -47 -39 -47q-7 0 -61.5 5t-83 5t-42.5 -2q-21 -120 -44 -251zM412 135q0 84 22 236.5t45 255.5q-27 18 -74 18q-90 0 -142 -106.5t-52 -294t92 -187.5q65 0 109 54v24z" />
    <glyph glyph-name="oe" unicode="&#x153;" horiz-adv-x="712" 
d="M243 443q32 0 60 -16q13 4 28 4q62 0 62 -102q32 55 84 84.5t110 29.5t96 -24.5t38 -66t-24.5 -69.5t-59.5 -43q-69 -30 -129 -37l-25 -3q7 -137 77 -137q24 0 51 12t42 24l15 12l24 -32q-8 -11 -32 -29t-46 -30q-57 -32 -119 -32q-111 0 -135 122q-66 -122 -190 -122
q-69 0 -108 48.5t-39 135.5q0 111 58.5 191t161.5 80zM224 74q42 0 75.5 40.5t46.5 85.5q-107 0 -107 102q0 42 13 78l5 12q-4 2 -10 2t-9 -2q-25 -16 -47 -75t-22 -135q0 -108 55 -108zM561 391q-35 0 -55 -41t-24 -86l2 -13q51 8 80 33t29 66t-32 41z" />
    <glyph glyph-name="Racute" unicode="&#x154;" horiz-adv-x="633" 
d="M70 -5q-19 0 -26 1q7 58 61.5 294.5t54.5 299.5q0 12 -14 31.5t-28 32.5l-13 14l3 16q137 26 290 26q184 0 184 -145q0 -71 -35.5 -129.5t-110.5 -91.5q56 -187 96 -242q18 -23 28 -23q18 0 56 18l12 6l23 -37q-37 -34 -85.5 -56t-91 -22t-70 36.5t-50 107.5t-45.5 182
q-32 -2 -49 -2q-51 -219 -56 -296q-43 -21 -134 -21zM299 380q60 0 94.5 53.5t34.5 127.5q0 39 -14 63t-42 24q-12 0 -28.5 -3.5t-16.5 -4.5q-16 -103 -52 -260h24zM559 846q0 -28 -37 -44q-91 -26 -262 -52l-21 46q210 95 283 135q11 -16 24 -45.5t13 -39.5z" />
    <glyph glyph-name="Rcommaaccent" unicode="&#x156;" horiz-adv-x="633" 
d="M367 -90q0 -84 -88 -172l-34 18q20 41 26 88l-59 51q4 21 27.5 51t47.5 40q32 0 56 -25t24 -51zM70 -5q-19 0 -26 1q7 58 61.5 294.5t54.5 299.5q0 12 -14 31.5t-28 32.5l-13 14l3 16q137 26 290 26q184 0 184 -145q0 -71 -35.5 -129.5t-110.5 -91.5q56 -187 96 -242
q18 -23 28 -23q18 0 56 18l12 6l23 -37q-37 -34 -85.5 -56t-91 -22t-70 36.5t-50 107.5t-45.5 182q-32 -2 -49 -2q-51 -219 -56 -296q-43 -21 -134 -21zM299 380q60 0 94.5 53.5t34.5 127.5q0 39 -14 63t-42 24q-12 0 -28.5 -3.5t-16.5 -4.5q-16 -103 -52 -260h24z" />
    <glyph glyph-name="rcommaaccent" unicode="&#x157;" horiz-adv-x="364" 
d="M181 -96q0 -38 -25.5 -85.5t-64.5 -86.5l-34 18q20 41 26 88l-59 43q4 21 25 49t45 38q34 0 60.5 -20t26.5 -44zM50 -3h-7q-2 8 -2 36.5t27 153.5t27 143q0 31 -28 68l-9 12l1 13q54 15 173 15q12 -26 12 -73q11 18 46 48t72 30q54 0 54 -94q-5 -6 -13.5 -15.5t-34 -26.5
t-49.5 -21q-1 0 -17 27t-24 27q-25 -9 -44 -30q-46 -207 -46 -268q0 -22 1 -31q-35 -14 -139 -14z" />
    <glyph glyph-name="Rcaron" unicode="&#x158;" horiz-adv-x="633" 
d="M70 -5q-19 0 -26 1q7 58 61.5 294.5t54.5 299.5q0 12 -14 31.5t-28 32.5l-13 14l3 16q137 26 290 26q184 0 184 -145q0 -71 -35.5 -129.5t-110.5 -91.5q56 -187 96 -242q18 -23 28 -23q18 0 56 18l12 6l23 -37q-37 -34 -85.5 -56t-91 -22t-70 36.5t-50 107.5t-45.5 182
q-32 -2 -49 -2q-51 -219 -56 -296q-43 -21 -134 -21zM299 380q60 0 94.5 53.5t34.5 127.5q0 39 -14 63t-42 24q-12 0 -28.5 -3.5t-16.5 -4.5q-16 -103 -52 -260h24zM480 795q-90 -50 -116.5 -50t-70.5 51.5t-71 92.5l34 32q107 -54 139 -61q51 9 120.5 35.5t78.5 29.5
l27 -37q-51 -43 -141 -93z" />
    <glyph glyph-name="rcaron" unicode="&#x159;" horiz-adv-x="364" 
d="M198 504q-28 0 -112 167l34 31q4 -3 16 -14t16.5 -15t14.5 -13t16 -13l15 -10q19 -14 30 -18q63 20 159 87l28 -40q-45 -50 -119 -106t-98 -56zM50 -3h-7q-2 8 -2 36.5t27 153.5t27 143q0 31 -28 68l-9 12l1 13q54 15 173 15q12 -26 12 -73q11 18 46 48t72 30
q54 0 54 -94q-5 -6 -13.5 -15.5t-34 -26.5t-49.5 -21q-1 0 -17 27t-24 27q-25 -9 -44 -30q-46 -207 -46 -268q0 -22 1 -31q-35 -14 -139 -14z" />
    <glyph glyph-name="dotlessj" unicode="&#x237;" horiz-adv-x="256" 
d="M89 333q0 23 -29 63l-9 14l1 13q57 15 172 15q13 -15 13 -55.5t-24.5 -188.5t-41 -213t-34.5 -102.5t-56.5 -70t-82 -32.5t-80.5 19t-56 37l-18 19l22 32q49 -29 73 -29q38 0 68 53t56 210.5t26 215.5z" />
    <glyph glyph-name="circumflex" unicode="&#x2c6;" horiz-adv-x="562" 
d="M341 705q33 0 127 -169l-31 -29q-86 67 -129 83q-81 -22 -189 -87l-27 37q53 51 137.5 108t111.5 57z" />
    <glyph glyph-name="caron" unicode="&#x2c7;" horiz-adv-x="562" 
d="M217 505q-37 0 -130 166l34 32q85 -67 129 -83q81 22 189 87l27 -37q-53 -51 -137.5 -108t-111.5 -57z" />
    <glyph glyph-name="ring" unicode="&#x2da;" horiz-adv-x="485" 
d="M132 627q0 46 28.5 75.5t81.5 29.5t81.5 -29.5t28.5 -75.5t-28.5 -76t-81.5 -30t-81.5 30t-28.5 76zM190 627q0 -22 13.5 -35.5t38 -13.5t37 13.5t12.5 35.5t-12.5 35.5t-37 13.5t-38 -13.5t-13.5 -35.5z" />
    <glyph glyph-name="tilde" unicode="&#x2dc;" horiz-adv-x="598" 
d="M103 531q14 142 101 142q34 0 99.5 -17.5t92.5 -17.5t38 6t25 30l31 -6q-4 -46 -16 -77q-23 -59 -86 -59q-23 0 -85.5 17.5t-93 17.5t-45 -8.5t-29.5 -34.5z" />
    <glyph glyph-name="dotaccentcmb" unicode="&#x307;" horiz-adv-x="500" 
d="M160.5 563.5q-17.5 19.5 -17.5 51t24.5 55t56.5 23.5t49 -19t17 -49.5t-25 -55.5t-56 -25t-48.5 19.5z" />
    <glyph glyph-name="endash" unicode="&#x2013;" horiz-adv-x="529" 
d="M54 238q0 55 3 85h429q0 -43 -3 -85h-429z" />
    <glyph glyph-name="emdash" unicode="&#x2014;" horiz-adv-x="968" 
d="M64 238q0 33 3 87h858q0 -45 -3 -87h-858z" />
    <glyph glyph-name="quoteleft" unicode="&#x2018;" horiz-adv-x="249" 
d="M74 518q0 92 110 217l47 -29q-52 -80 -58 -122l59 -36q0 -35 -16.5 -69t-33.5 -53q-56 0 -89 30q-19 17 -19 62z" />
    <glyph glyph-name="quoteright" unicode="&#x2019;" horiz-adv-x="243" 
d="M243 643q0 -92 -110 -217l-47 29q52 80 58 122l-59 36q0 35 16.5 69t33.5 53q56 0 89 -30q19 -17 19 -62z" />
    <glyph glyph-name="quotesinglbase" unicode="&#x201a;" horiz-adv-x="281" 
d="M225 52q0 -92 -110 -217l-37 24q55 85 60 120l-71 43q0 35 16.5 69t33.5 53q56 0 89 -30q19 -17 19 -62z" />
    <glyph glyph-name="quotedblleft" unicode="&#x201c;" horiz-adv-x="444" 
d="M74 518q0 92 110 217l47 -29q-52 -80 -58 -122l59 -36q0 -35 -16.5 -69t-33.5 -53q-56 0 -89 30q-19 17 -19 62zM269 518q0 92 110 217l47 -29q-52 -80 -58 -122l59 -36q0 -35 -16.5 -69t-33.5 -53q-56 0 -89 30q-19 17 -19 62z" />
    <glyph glyph-name="quotedblright" unicode="&#x201d;" horiz-adv-x="438" 
d="M438 643q0 -92 -110 -217l-47 29q52 80 58 122l-59 36q0 35 16.5 69t33.5 53q56 0 89 -30q19 -17 19 -62zM243 643q0 -92 -110 -217l-47 29q52 80 58 122l-59 36q0 35 16.5 69t33.5 53q56 0 89 -30q19 -17 19 -62z" />
    <glyph glyph-name="quotedblbase" unicode="&#x201e;" horiz-adv-x="468" 
d="M225 52q0 -92 -110 -217l-37 24q55 85 60 120l-71 43q0 35 16.5 69t33.5 53q56 0 89 -30q19 -17 19 -62zM420 52q0 -92 -110 -217l-37 24q55 85 60 120l-71 43q0 35 16.5 69t33.5 53q20 0 46.5 -8t44 -23.5t17.5 -60.5z" />
    <glyph glyph-name="bullet" unicode="&#x2022;" horiz-adv-x="428" 
d="M133 232.5q-33 34.5 -33 89t38 91.5t93.5 37t88 -33.5t32.5 -86.5t-38.5 -92.5t-93 -39.5t-87.5 34.5z" />
    <glyph glyph-name="guilsinglleft" unicode="&#x2039;" horiz-adv-x="323" 
d="M259 492l43 -34q-91 -114 -112 -157q17 -52 80 -155l-42 -35q-35 24 -95.5 90t-60.5 95q3 36 187 196z" />
    <glyph glyph-name="guilsinglright" unicode="&#x203a;" horiz-adv-x="334" 
d="M95 111l-43 34q91 114 112 157q-17 52 -80 155l42 35q35 -24 95.5 -90t60.5 -95q-3 -36 -187 -196z" />
    <glyph glyph-name="Euro" unicode="&#x20ac;" horiz-adv-x="586" 
d="M466 315q-2 -25 -17 -58q-38 4 -88 4t-108 -2q4 -90 38 -129.5t83 -39.5q79 0 152 74l41 -37q-11 -16 -40 -44t-57 -46.5t-71 -33.5t-87 -15q-90 0 -151 71.5t-64 197.5q-53 -3 -83 -8q-2 12 -2 29.5t3 36.5h84q1 20 7 58q-48 -3 -74 -8q-2 12 -2 29t3 37h88
q37 122 120 200.5t191 78.5q82 0 136.5 -40t54.5 -95.5t-33 -94.5q-32 0 -72 14t-60 34l19 101q-24 15 -67 15t-83 -58.5t-60 -154.5h217q-2 -25 -17 -58q-38 4 -90.5 4t-118.5 -2q-4 -40 -5 -60h213z" />
    <glyph glyph-name="CR" horiz-adv-x="500" 
 />
    <glyph glyph-name="acute.cap" horiz-adv-x="600" 
d="M469 846q0 -28 -37 -44q-91 -26 -262 -52l-21 46q210 95 283 135q11 -16 24 -45.5t13 -39.5z" />
    <glyph glyph-name="grave.cap" horiz-adv-x="603" 
d="M213 915q40 0 259 -132l-17 -47q-95 28 -306 83q26 96 64 96z" />
    <glyph glyph-name="tilde.cap" horiz-adv-x="610" 
d="M103 765q14 136 102 136q34 0 104.5 -18t93 -18t31.5 1q20 4 36 32l32 -6q-4 -41 -17 -73q-20 -56 -86 -56q-23 0 -90.5 17.5t-99 17.5t-45.5 -7.5t-28 -32.5z" />
    <glyph glyph-name="dieresis.cap" horiz-adv-x="519" 
d="M101.5 782q-16.5 17 -16.5 46.5t23 50t54 20.5q65 0 65 -63q0 -28 -23.5 -49.5t-54.5 -21.5t-47.5 17zM307 782q-16 17 -16 46.5t22.5 50t53.5 20.5q66 0 66 -63q0 -28 -24 -49.5t-55 -21.5t-47 17z" />
    <glyph glyph-name="circumflex.cap" horiz-adv-x="579" 
d="M230 869q90 50 116.5 50t70.5 -51.5t71 -92.5l-34 -32q-107 54 -139 61q-51 -9 -120.5 -35.5t-78.5 -29.5l-27 37q51 43 141 93z" />
    <glyph glyph-name="caron.cap" horiz-adv-x="579" 
d="M347 795q-90 -50 -116.5 -50t-70.5 51.5t-71 92.5l34 32q107 -54 139 -61q51 9 120.5 35.5t78.5 29.5l27 -37q-51 -43 -141 -93z" />
    <glyph glyph-name="ring.cap" horiz-adv-x="481" 
d="M160.5 769.5q-28.5 28.5 -28.5 71t28.5 70t79.5 27.5t79.5 -27.5t28.5 -70t-28.5 -71t-79.5 -28.5t-79.5 28.5zM186 840q0 -21 14.5 -34.5t39.5 -13.5t38 13.5t13 34.5t-13 34.5t-38 13.5t-39.5 -13.5t-14.5 -34.5z" />
    <glyph glyph-name="dotaccentcmb.cap" horiz-adv-x="371" 
d="M141.5 751.5q-17.5 19.5 -17.5 51t24.5 55t56.5 23.5t49 -19t17 -49.5t-25 -55.5t-56 -25t-48.5 19.5z" />
    <glyph glyph-name="commaaccent" horiz-adv-x="200" 
d="M182 -90q0 -84 -88 -172l-34 18q20 41 26 88l-59 51q4 21 27.5 51t47.5 40q32 0 56 -25t24 -51z" />
    </font>
</defs>
</svg>
